BitTorrentTracker PerecTracker.org
BitTorrentTracker PerecTracker.org
    
Регистрация  ·  Вход
 
 · 
Забыли пароль?

  • Армия Франкенштейна / Frankenstein\'s Army (Ричард Рапхорст / Richard Raaphorst) [2013, США, Нидерланды, Чехия, ужасы, фантастика, боевик, BDRip] VO + Original Eng + Sub Eng

    Ответить на тему
     
    Автор Сообщение

    Light

    Создавать темы 17-Май-2016 04:37

           

    [Цитировать]

    Армия Франкенштейна / Frankenstein's Army--Страна: США, Нидерланды, Чехия
    Жанр: ужасы, фантастика, боевик
    Продолжительность: 01:24:03
    Год выпуска: 2013
    -Перевод: Одноголосый, закадровый
    Субтитры: английские (полные, внешние, srt)
    Режиссёр: Ричард Рапхорст / Richard Raaphorst
    -В ролях:
    Роберт Гвилим, Хон Пинг Тэнг, Александр Меркюри, Люк Ньюберри, Джошуа Зассе, Марк Стивенсон, Андрей Заяц, Карел Роден, Клаус Лукас, Кристина Каталина
    -Описание:
    Конец Великой Отечественной войны. Русские солдаты уже ступают по территории Германии. Случайно они находят тайную нацистскую лабораторию, в которой по записям доктора Франкенштейна гитлеровцы вовсю экспериментировали с мертвой и живой плотью и создавали армию суперсолдат — последняя и отчаяная попытка Гитлера избежать поражения в войне…
    -Релиз групп All Films и RG Torrents.ru-Сэмпл: https://www.sendspace.com/file/lfdi26-Качество: BDRip - Исходник (Спасибо Мигель Шапкин)
    Формат: AVI
    Видео: 720x400 (1.80:1), 23.976 fps, XviD build 73 ~1828 kbps avg, 0.26 bit/pixel
    Аудио: 48 kHz, AC3 Dolby Digital, 2/0 (L,R) ch, ~192 kbps | VO
    Аудио 2: 48 kHz, AC3 Dolby Digital, 3/2 (L,C,R,l,r) + LFE ch, ~448 kbps | Original
    -

    Отчёт MediaInfo

    General
    Complete name : C:\Users\Максим\Desktop\Armija.Frankenshteina.2013.BDRip.polkera.avi
    Format : AVI
    Format/Info : Audio Video Interleave
    File size : 1.46 GiB
    Duration : 1h 24mn
    Overall bit rate : 2 483 Kbps
    Writing application : VirtualDubMod 1.5.10.3 | www.virtualdub-fr.org || (build 2550/release)
    Writing library : VirtualDubMod build 2550/release
    Video
    Format : MPEG-4 Visual
    Format profile : Streaming Video@L1
    Format settings, BVOP : Yes
    Format settings, QPel : No
    Format settings, GMC : No warppoints
    Format settings, Matrix : Custom
    Codec ID : XVID
    Codec ID/Hint : XviD
    Duration : 1h 24mn
    Bit rate : 1 829 Kbps
    Width : 720 pixels
    Height : 400 pixels
    Display aspect ratio : 16/9
    Frame rate : 23.976 fps
    Resolution : 24 bits
    Colorimetry : 4:2:0
    Scan type : Progressive
    Bits/(Pixel*Frame) : 0.265
    Stream size : 1.07 GiB (74%)
    Writing library : XviD 73
    Audio #1
    Format : AC-3
    Format/Info : Audio Coding 3
    Codec ID : 2000
    Duration : 1h 24mn
    Bit rate mode : Constant
    Bit rate : 192 Kbps
    Channel(s) : 2 channels
    Channel positions : L R
    Sampling rate : 48.0 KHz
    Stream size : 115 MiB (8%)
    Alignment : Split accross interleaves
    Interleave, duration : 42 ms (1.00 video frame)
    Interleave, preload duration : 500 ms
    Audio #2
    Format : AC-3
    Format/Info : Audio Coding 3
    Codec ID : 2000
    Duration : 1h 24mn
    Bit rate mode : Constant
    Bit rate : 448 Kbps
    Channel(s) : 6 channels
    Channel positions : Front: L C R, Surround: L R, LFE
    Sampling rate : 48.0 KHz
    Stream size : 269 MiB (18%)
    Alignment : Split accross interleaves
    Interleave, duration : 42 ms (1.00 video frame)
    Interleave, preload duration : 500 ms

    -

    Скриншоты

    -
    |
    Скачать .torrent

    Скачать торрент-файл бесплатно и на максимальной скорости!

    Как скачивать? · Что такое торрент? · Рейтинг и ограничения

    !ВНИМАНИЕ!
    Сайт не распространяет и не хранит электронные версии произведений, а занимается лишь лишь предоставлением доступа к создаваемому пользователями каталогу ссылок на торрент-файлы, которые содержат только списки хеш-сумм, убедительная просьба с жалобами обращаться напрямую к пользователю. Файлы для обмена на трекере предоставлены пользователями сайта, и администрация не несёт ответственности за их содержание. Просьба не заливать файлы, защищенные авторскими правами, а также файлы нелегального содержания!


    _________________
    [Профиль] [ЛС]
    Показать сообщения:    
    Ответить на тему

    Текущее время: Сегодня, в 20:11

    Часовой пояс: GMT + 2



    Вы не можете начинать темы
    Вы не можете отвечать на сообщения
    Вы не можете редактировать свои сообщения
    Вы не можете удалять свои сообщения
    Вы не можете голосовать в опросах
    Вы не можете прикреплять файлы к сообщениям
    Вы не можете скачивать файлы