BitTorrentTracker PerecTracker.org
BitTorrentTracker PerecTracker.org
    
Регистрация  ·  Вход
 
 · 
Забыли пароль?

  • Око разума / Mind\'s Eye / The Black Hole (Марк Стивен Гроув / Mark Steven Grove) [2015, США, Фантастика, триллер,драма, HDRip] MVO

    Ответить на тему
     
    Автор Сообщение

    Light

    Создавать темы 17-Май-2016 00:30

           

    [Цитировать]

    Око разума / Mind's Eye / The Black Hole
    Страна: США
    Жанр: Фантастика, триллер,драма
    Год выпуска: 2015
    Продолжительность: 01:51:13
    Перевод: Профессиональный (многоголосый закадровый) [Официальный звук]
    Cубтитры: нет
    Режиссер: Марк Стивен Гроув / Mark Steven Grove
    В ролях: Малкольм МакДауэлл, Дин Кэйн, Натали Дистлер, Иззи Стил, Мигина Цай, Аарон Перило, Lucine Fyelon, Кристин Китинг, Madeline Weiss, Джесси Коув
    Описание: Мэтти Карвер учится в музыкальной школе. Девушке не хватает приключений, а потому она решает пуститься в поездку в мир Алисы в Зазеркалье, которая наполнена странными и непредсказуемыми событиями. Ее компанией в этом приключении становятся друзья в виде группы учителей и двух таинственных мужчин в черном. Наша героиня осознает, что здесь что-то не так, и решает любыми способами вернуть в привычное русло свою жизнь и свой настоящий мир, пока это не зашло далеко и не стало поздно…
    Сэмпл: https://yadi.sk/i/mSeCe9EUrkHGe
    Качество видео: HDRip
    Формат видео: AVI
    Видео: XviD 73, 720x320, (2,25:1), 23,976 fps, 1667 Кбит/с, 8 бит
    Аудио: Русский (AC-3, 2 ch (Front: L R), 48,0 KHz, 192 Kbps)

    MediaInfo

    Общее
    Полное имя : F:\Видеофильмы\В и д е о\Око разума (триллер драма 2015г).avi
    Формат : AVI
    Формат/Информация : Audio Video Interleave
    Размер файла : 1,45 Гбайт
    Продолжительность : 1 ч. 51 м.
    Общий поток : 1869 Кбит/сек
    Программа кодирования : VirtualDubMod 1.5.10.3 | www.virtualdub-fr.org || (build 2550/release)
    Библиотека кодирования : VirtualDubMod build 2550/release
    Видео
    Идентификатор : 0
    Формат : MPEG-4 Visual
    Профиль формата : Advanced Simple@L5
    Параметр BVOP формата : 1
    Параметр QPel формата : Нет
    Параметр GMC формата : Без точки перехода
    Параметр матрицы формата : Выборочная
    Идентификатор кодека : XVID
    Идентификатор кодека/Подсказка : XviD
    Продолжительность : 1 ч. 51 м.
    Битрейт : 1667 Кбит/сек
    Ширина : 720 пикселей
    Высота : 320 пикселей
    Соотношение сторон : 2,25:1
    Частота кадров : 23,976 (23976/1000) кадра/сек
    Цветовое пространство : YUV
    Субдискретизация насыщенности : 4:2:0
    Битовая глубина : 8 бит
    Тип развёртки : Прогрессивная
    Метод сжатия : С потерями
    Бит/(Пиксели*Кадры) : 0.302
    Размер потока : 1,30 Гбайт (89%)
    Библиотека кодирования : XviD 73
    Аудио
    Идентификатор : 1
    Формат : AC-3
    Формат/Информация : Audio Coding 3
    Расширение режима : CM (complete main)
    Параметр Endianness формата : Big
    Идентификатор кодека : 2000
    Продолжительность : 1 ч. 51 м.
    Вид битрейта : Постоянный
    Битрейт : 192 Кбит/сек
    Каналы : 2 канала
    Расположение каналов : Front: L R
    Частота : 48,0 КГц
    Частота кадров : 31,250 кадров/сек (1536 spf)
    Метод сжатия : С потерями
    Размер потока : 153 Мбайт (10%)
    Выравнивание : Разделение по промежуткам
    Продолжительность промежутка : 42 мс. (1,00 видеокадр)
    Время предзагрузки промежутка : 500 мс.

    Скриншот c названием фильма

    Скриншоты

    Скачать .torrent

    Скачать торрент-файл бесплатно и на максимальной скорости!

    Как скачивать? · Что такое торрент? · Рейтинг и ограничения

    !ВНИМАНИЕ!
    Сайт не распространяет и не хранит электронные версии произведений, а занимается лишь лишь предоставлением доступа к создаваемому пользователями каталогу ссылок на торрент-файлы, которые содержат только списки хеш-сумм, убедительная просьба с жалобами обращаться напрямую к пользователю. Файлы для обмена на трекере предоставлены пользователями сайта, и администрация не несёт ответственности за их содержание. Просьба не заливать файлы, защищенные авторскими правами, а также файлы нелегального содержания!


    _________________
    [Профиль] [ЛС]
    Показать сообщения:    
    Ответить на тему

    Текущее время: Сегодня, в 04:24

    Часовой пояс: GMT + 2



    Вы не можете начинать темы
    Вы не можете отвечать на сообщения
    Вы не можете редактировать свои сообщения
    Вы не можете удалять свои сообщения
    Вы не можете голосовать в опросах
    Вы не можете прикреплять файлы к сообщениям
    Вы не можете скачивать файлы