BitTorrentTracker PerecTracker.org
BitTorrentTracker PerecTracker.org
    
Регистрация  ·  Вход
 
 · 
Забыли пароль?

  • В активном поиске / How to Be Single (Кристиан Диттер / Christian Ditter) [2016, США, мелодрама, комедия, BDRip] Dub

    Ответить на тему
     
    Автор Сообщение

    rechyn

    Создавать темы 16-Май-2016 20:25

           

    [Цитировать]

    В активном поиске / How to Be Single--Страна: США
    Жанр: мелодрама, комедия
    Продолжительность: 01:49:49
    Год выпуска: 2016
    -Перевод: Профессиональный (дублированный) | iTunes
    Субтитры: нет
    Режиссёр: Кристиан Диттер / Christian Ditter
    -В ролях:
    Дакота Джонсон, Ребел Уилсон, Элисон Бри, Лесли Манн, Николас Браун, Джейсон Манцукас, Дэймон Уайанс мл., Колин Жост, Джейк Лэси, Андерс Холм, Сара Рамос, Ник Бейтман, Мики Гуч мл., Ванесса Рубио, Зани Джонс Мбаис, Брент Морин, Кэй Кэннон, Джудит Лайтфут Кларк, Патрик Болл, Анна Эйлинсфелд
    -Описание:
    Устав от жизни со своим бойфрендом, Элис уходит от него, переезжает к старшей сестре Мэг, находит новую работу и обзаводится новой подругой Робин. Последняя оказывается страстной поклонницей ночных «отжигов» и пытается втянуть Элис в свою безумную жизнь, хотя та предпочитает чинные и продолжительные отношения пьяным знакомствам на вечеринках.
    -Релиз групп All Films и RG Torrents.ru-Сэмпл: https://www.sendspace.com/file/r2u8qk-Качество: BDRip - Исходник - BDRemux 1080p (Кинозал)
    Формат: AVI
    Видео: 688x288 (2.39:1), 23.976 fps, XviD build 73 ~812 kbps avg, 0.17 bit/pixel
    Аудио: 48 kHz, MPEG Layer 3, 2 ch, ~128.00 kbps avg | Дорожку стянул отсюда (Спасибо AFM)
    -

    Отчёт MediaInfo

    General
    Complete name : C:\Users\Максим\Desktop\How.to.be.Single.2016.BDRip.polkera.avi
    Format : AVI
    Format/Info : Audio Video Interleave
    File size : 746 MiB
    Duration : 1h 49mn
    Overall bit rate : 950 Kbps
    Writing application : VirtualDubMod 1.5.10.3 | www.virtualdub-fr.org || (build 2550/release)
    Writing library : VirtualDubMod build 2550/release
    Video
    Format : MPEG-4 Visual
    Format profile : Streaming Video@L1
    Format settings, BVOP : Yes
    Format settings, QPel : No
    Format settings, GMC : No warppoints
    Format settings, Matrix : Custom
    Codec ID : XVID
    Codec ID/Hint : XviD
    Duration : 1h 49mn
    Bit rate : 812 Kbps
    Width : 688 pixels
    Height : 288 pixels
    Display aspect ratio : 2.35
    Frame rate : 23.976 fps
    Resolution : 24 bits
    Colorimetry : 4:2:0
    Scan type : Progressive
    Bits/(Pixel*Frame) : 0.171
    Stream size : 638 MiB (86%)
    Writing library : XviD 73
    Audio
    Format : MPEG Audio
    Format version : Version 1
    Format profile : Layer 3
    Codec ID : 55
    Codec ID/Hint : MP3
    Duration : 1h 49mn
    Bit rate mode : Constant
    Bit rate : 128 Kbps
    Channel(s) : 2 channels
    Sampling rate : 48.0 KHz
    Resolution : 16 bits
    Stream size : 101 MiB (13%)
    Alignment : Aligned on interleaves
    Interleave, duration : 42 ms (1.00 video frame)
    Interleave, preload duration : 504 ms
    Writing library : LAME3.99r
    Encoding settings : -m s -V 4 -q 2 -lowpass 17 -b 128

    -

    Скриншоты

    -
    |
    Скачать .torrent

    Скачать торрент-файл бесплатно и на максимальной скорости!

    Как скачивать? · Что такое торрент? · Рейтинг и ограничения

    !ВНИМАНИЕ!
    Сайт не распространяет и не хранит электронные версии произведений, а занимается лишь лишь предоставлением доступа к создаваемому пользователями каталогу ссылок на торрент-файлы, которые содержат только списки хеш-сумм, убедительная просьба с жалобами обращаться напрямую к пользователю. Файлы для обмена на трекере предоставлены пользователями сайта, и администрация не несёт ответственности за их содержание. Просьба не заливать файлы, защищенные авторскими правами, а также файлы нелегального содержания!


    _________________
    [Профиль] [ЛС]
    Показать сообщения:    
    Ответить на тему

    Текущее время: Сегодня, в 12:37

    Часовой пояс: GMT + 2



    Вы не можете начинать темы
    Вы не можете отвечать на сообщения
    Вы не можете редактировать свои сообщения
    Вы не можете удалять свои сообщения
    Вы не можете голосовать в опросах
    Вы не можете прикреплять файлы к сообщениям
    Вы не можете скачивать файлы