BitTorrentTracker PerecTracker.org
BitTorrentTracker PerecTracker.org
    
Регистрация  ·  Вход
 
 · 
Забыли пароль?

  • Человек, который хотел жить по-своему / L\'homme qui voulait vivre sa vie (Эрик Лартиго / Eric Lartigau) [2010, Франция, триллер, драма, BDRip 1080p] MVO (Первый канал) + DVO (Elrom) + Sub Rus, Eng + Original Fre

    Ответить на тему
     
    Автор Сообщение

    Light

    Создавать темы 16-Май-2016 20:25

           

    [Цитировать]

    Человек, который хотел жить по-своему / L'homme qui voulait vivre sa vie
    Страна: Франция
    Студия: EuropaCorp, TF1 Films Production, CiBy 2000
    Жанр: триллер, драма
    Год выпуска: 2010
    Продолжительность: 01:55:09
    Перевод 1: Профессиональный (многоголосый закадровый) Первый канал
    Перевод 2: Профессиональный (двухголосый закадровый) Elrom
    Cубтитры: русские, английские
    Оригинальная аудиодорожка: французский
    Режиссер: Эрик Лартиго / Eric Lartigau
    В ролях: Ромен Дюрис, Марина Фоис, Нильс Ареструп, Бранка Катич, Катрин Денёв, Эрик Руф, Энцо Какот, Люка Антик, Рашель Демарес, Эстебан Карвахаль-Алегрия
    Описание: Главный герой Поль - сотрудник одной из адвокатских контор Парижа с большой зарплатой и большим домом, красивой женой и двумя сыновьями. Однако вскоре Поль узнает, что его жена изменяет ему с местным фотографом. Слепая ярость толкает Поля на безрассудный поступок. Стоя над трупом любовника, он понимает, что его красивая благополучная жизнь в прошлом…- -Сэмпл: http://sendfile.su/1233682
    Тип релиза: BDRip 1080p [VietHD]
    Контейнер: MKV
    Видео: h.264, 1920x818, 24.000 fps, 15000 kbps
    Аудио #1: Russian: AC3 2.0, 48 kHz, 192 kbps avg |Многоголосый закадровый, Первый канал|
    Аудио #2: Russian: AC3 2.0, 48 kHz, 192 kbps avg |Двухголосый закадровый, Elrom|
    Аудио #3: French: DTS 5.1, 48 kHz/24-bit, 1536 kbps avg |Оригинал|
    Формат субтитров: softsub (SRT)

    MediaInfo

    Complete name : E:\L.homme.qui.voulait.vivre.sa.vie.2010.1080p.BluRay.2xRus.Eng.HDCLUB.mkv
    Format : Matroska
    Format version : Version 2
    File size : 13.9 GiB
    Duration : 1h 55mn
    Overall bit rate : 17.3 Mbps
    Movie name : L'homme qui voulait vivre sa vie (2010) - Release for HDCLUB
    Encoded date : UTC 2016-05-13 19:22:33
    Writing application : mkvmerge v5.7.0 ('The Whirlwind') built on Jul 8 2012 20:08:51
    Writing library : libebml v1.2.3 + libmatroska v1.3.0
    Video
    ID : 1
    Format : AVC
    Format/Info : Advanced Video Codec
    Format profile : High@L4.1
    Format settings, CABAC : Yes
    Format settings, ReFrames : 5 frames
    Codec ID : V_MPEG4/ISO/AVC
    Duration : 1h 55mn
    Bit rate : 15.0 Mbps
    Width : 1 920 pixels
    Height : 818 pixels
    Display aspect ratio : 2.35:1
    Frame rate mode : Constant
    Frame rate : 24.000 fps
    Color space : YUV
    Chroma subsampling : 4:2:0
    Bit depth : 8 bits
    Scan type : Progressive
    Bits/(Pixel*Frame) : 0.398
    Stream size : 12.1 GiB (87%)
    Writing library : x264 core 148 r2665kMod a01e339
    Encoding settings : cabac=1 / ref=5 / deblock=1:-3:-3 / analyse=0x3:0x133 / me=umh / subme=10 / psy=1 / fade_compensate=0.00 / psy_rd=1.05:0.00 / mixed_ref=1 / me_range=24 / chroma_me=1 / trellis=2 / 8x8dct=1 / cqm=0 / deadzone=21,11 / fast_pskip=0 / chroma_qp_offset=-2 / threads=12 / lookahead_threads=3 / sliced_threads=0 / nr=0 / decimate=0 / interlaced=0 / bluray_compat=0 / constrained_intra=0 / fgo=0 / bframes=11 / b_pyramid=2 / b_adapt=2 / b_bias=0 / direct=3 / weightb=1 / open_gop=0 / weightp=2 / keyint=250 / keyint_min=24 / scenecut=40 / intra_refresh=0 / rc_lookahead=60 / rc=crf / mbtree=0 / crf=15.0000 / qcomp=0.65 / qpmin=0 / qpmax=69 / qpstep=4 / vbv_maxrate=62500 / vbv_bufsize=78125 / crf_max=0.0 / nal_hrd=none / filler=0 / ip_ratio=1.30 / pb_ratio=1.20 / aq=3:0.75
    Language : French
    Default : Yes
    Forced : No
    Color range : Limited
    Matrix coefficients : BT.709
    Audio #1
    ID : 2
    Format : AC-3
    Format/Info : Audio Coding 3
    Mode extension : CM (complete main)
    Format settings, Endianness : Big
    Codec ID : A_AC3
    Duration : 1h 55mn
    Bit rate mode : Constant
    Bit rate : 192 Kbps
    Channel(s) : 2 channels
    Channel positions : Front: L R
    Sampling rate : 48.0 KHz
    Frame rate : 31.250 fps (1536 spf)
    Compression mode : Lossy
    Stream size : 158 MiB (1%)
    Title : |Многоголосый закадровый, 1 канал|
    Language : Russian
    Default : Yes
    Forced : No
    Audio #2
    ID : 3
    Format : AC-3
    Format/Info : Audio Coding 3
    Mode extension : CM (complete main)
    Format settings, Endianness : Big
    Codec ID : A_AC3
    Duration : 1h 55mn
    Bit rate mode : Constant
    Bit rate : 192 Kbps
    Channel(s) : 2 channels
    Channel positions : Front: L R
    Sampling rate : 48.0 KHz
    Frame rate : 31.250 fps (1536 spf)
    Compression mode : Lossy
    Stream size : 158 MiB (1%)
    Title : |Двухголосый закадровый, студия Elrom|
    Language : Russian
    Default : No
    Forced : No
    Audio #3
    ID : 4
    Format : DTS
    Format/Info : Digital Theater Systems
    Mode : 16
    Format settings, Endianness : Big
    Codec ID : A_DTS
    Duration : 1h 55mn
    Bit rate mode : Constant
    Bit rate : 1 509 Kbps
    Channel(s) : 6 channels
    Channel positions : Front: L C R, Side: L R, LFE
    Sampling rate : 48.0 KHz
    Frame rate : 93.750 fps (512 spf)
    Bit depth : 24 bits
    Compression mode : Lossy
    Stream size : 1.21 GiB (9%)
    Language : French
    Default : No
    Forced : No
    Text #1
    ID : 5
    Format : UTF-8
    Codec ID : S_TEXT/UTF8
    Codec ID/Info : UTF-8 Plain Text
    Language : Russian
    Default : No
    Forced : No
    Text #2
    ID : 6
    Format : UTF-8
    Codec ID : S_TEXT/UTF8
    Codec ID/Info : UTF-8 Plain Text
    Language : English
    Default : Yes
    Forced : No
    Menu
    00:00:00.000 : en:00:00:00.000
    00:09:40.042 : en:00:09:40.042
    00:18:51.417 : en:00:18:51.417
    00:25:14.250 : en:00:25:14.250
    00:33:30.750 : en:00:33:30.750
    00:39:37.917 : en:00:39:37.917
    00:49:36.458 : en:00:49:36.458
    01:01:01.792 : en:01:01:01.792
    01:10:58.125 : en:01:10:58.125
    01:21:56.125 : en:01:21:56.125
    01:31:12.667 : en:01:31:12.667
    01:40:27.083 : en:01:40:27.083

    Source vs Encode




    Скриншоты

    Скачать .torrent

    Скачать торрент-файл бесплатно и на максимальной скорости!

    Как скачивать? · Что такое торрент? · Рейтинг и ограничения

    !ВНИМАНИЕ!
    Сайт не распространяет и не хранит электронные версии произведений, а занимается лишь лишь предоставлением доступа к создаваемому пользователями каталогу ссылок на торрент-файлы, которые содержат только списки хеш-сумм, убедительная просьба с жалобами обращаться напрямую к пользователю. Файлы для обмена на трекере предоставлены пользователями сайта, и администрация не несёт ответственности за их содержание. Просьба не заливать файлы, защищенные авторскими правами, а также файлы нелегального содержания!


    _________________
    [Профиль] [ЛС]
    Показать сообщения:    
    Ответить на тему

    Текущее время: Сегодня, в 13:56

    Часовой пояс: GMT + 2



    Вы не можете начинать темы
    Вы не можете отвечать на сообщения
    Вы не можете редактировать свои сообщения
    Вы не можете удалять свои сообщения
    Вы не можете голосовать в опросах
    Вы не можете прикреплять файлы к сообщениям
    Вы не можете скачивать файлы