BitTorrentTracker PerecTracker.org
BitTorrentTracker PerecTracker.org
    
Регистрация  ·  Вход
 
 · 
Забыли пароль?

  • Команда «А» / The A-Team (Джо Карнахан / Joe Carnahan) [2010, США, приключения, BDRemux 1080p] [Extended Cut] Dub + MVO (ОРТ) +2х VO (acolith, Дасевич) + 2х AVO (Сербин, Гаврилов) + Original Eng + Sub Rus, Eng

    Ответить на тему
     
    Автор Сообщение

    Light

    Создавать темы 16-Май-2016 20:25

           

    [Цитировать]

    Команда «А» / The A-Team / [Extended Cut] «План 'Б' не предусмотрен»
    Страна: США
    Студия: 20th Century Fox
    Жанр: приключения
    Год выпуска: 2010
    Продолжительность: 02:13:34
    Перевод: Профессиональный (дублированный)|Дубляж, Blu-ray CEE_2010г|
    Перевод 2: Профессиональный (многоголосый закадровый)|MVO, ОРТ|
    Перевод 3: Одноголосый закадровый |acolith|
    Перевод 4: Одноголосый закадровый |Дасевич, Александр Александрович|
    Перевод 5: Авторский (одноголосый закадровый)|Сербин, Юрий Владимирович|
    Перевод 6: Авторский (одноголосый закадровый)|Гаврилов, Андрей Юрьевич|
    Cубтитры: русские, английские
    Оригинальная аудиодорожка: английский
    Режиссер: Джо Карнахан / Joe Carnahan
    В ролях: Лиам Нисон, Брэдли Купер, Шарлто Копли, Куинтон Джексон, Джессика Бил, Патрик Уилсон, Джералд МакРэйни, Генри Черни, Юл Васкез, Брайан Блум.
    Описание: Группа ветеранов войны в Ираке, несправедливо обвиненных в преступлении, пытается найти истинных виновников и вернуть себе честное имя.
    Сэмпл: https://yadi.sk/i/vvrA-yU4rhueW
    Тип релиза: BDRemux 1080p
    Контейнер: MKV
    Видео: 1920x1080 at 23.976 fps, MPEG-4 AVC, ~ 18016 kbps avg
    Аудио: Russian / DTS / 5.1 / 48 kHz / 768 kbps |Дубляж, Blu-ray CEE_2010г|
    Аудио 2: Russian: 48 kHz, AC3, 2/0 (L,R) ch, ~ 192.00 kbps avg |MVO, ОРТ|
    Аудио 3: Ukrainian: 48 kHz, AC3, 3/2 (L,C,R,l,r) + LFE ch, ~ 448.00 kbps avg |Дубляж, Blu-ray CEE|
    Аудио 4: Russian / DTS-HD MA / 5.1 / 48 kHz / 4129 kbps / 24-bit (DTS Core: 5.1 / 48 kHz / 1509 kbps / 24-bit)|acolith|
    Аудио 5: Russian / DTS-HD MA / 5.1 / 48 kHz / 4133 kbps / 24-bit (DTS Core: 5.1 / 48 kHz / 1509 kbps / 24-bit)|Дасевич, Александр Александрович|
    Аудио 6: Russian / DTS-HD MA / 5.1 / 48 kHz / 4127 kbps / 24-bit (DTS Core: 5.1 / 48 kHz / 1509 kbps / 24-bit)|Сербин, Юрий Владимирович|
    Аудио 7: Russian / DTS-HD MA / 5.1 / 48 kHz / 4127 kbps / 24-bit (DTS Core: 5.1 / 48 kHz / 1509 kbps / 24-bit)|Гаврилов, Андрей Юрьевич|
    Аудио 8: English / DTS-HD MA / 5.1 / 48 kHz / 4107 kbps / 24-bit (DTS Core: 5.1 / 48 kHz / 1509 kbps / 24-bit)|original|
    Аудио 9: English AC3 / 2.0 / 48 kHz / 224 kbps / 16-bit (commentary)
    Формат субтитров: softsub (SRT)

    MediaInfo

    Общее
    Уникальный идентификатор : 197668643326202475265381550194436072122 (0x94B5988E87A61BFDAE3BA1D4EEBBE2BA)
    Полное имя : C:\V.S.P\movie\_The A-Team_[Extended Cut]_2010г_Sharlto Copley & Quinton_[Ramone]_«Rampage» Jackson & Bradley Charles Cooper & William John_[Liam]_Neeson_\_The A-Team_[Extended Cut]_2010г_Sharlto Copley & Quinton Jackson & Bradley Cooper & Liam Neeson.mkv
    Формат : Matroska
    Версия формата : Version 4 / Version 2
    Размер файла : 37,6 Гбайт
    Продолжительность : 2 ч. 13 м.
    Режим общего битрейта : Переменный
    Общий поток : 40,3 Мбит/сек
    Название фильма : _The A-Team_[Extended Cut] _2010г_Sharlto Copley & Quinton_[Ramone]_«Rampage» Jackson & Bradley Cooper & William John_[Liam]_Neeson_
    Дата кодирования : UTC 2016-05-14 13:10:47
    Программа кодирования : mkvmerge v6.9.1 ('Blue Panther') 64bit built on Apr 18 2014 18:23:38
    Библиотека кодирования : libebml v1.3.0 + libmatroska v1.4.1
    Видео
    Идентификатор : 1
    Формат : AVC
    Формат/Информация : Advanced Video Codec
    Профиль формата : High@L4.1
    Параметр CABAC формата : Да
    Параметр ReFrames формата : 4 кадра
    Идентификатор кодека : V_MPEG4/ISO/AVC
    Продолжительность : 2 ч. 13 м.
    Вид битрейта : Переменный
    Максимальный битрейт : 35,0 Мбит/сек
    Ширина : 1920 пикселей
    Высота : 1080 пикселей
    Соотношение сторон : 16:9
    Режим частоты кадров : Постоянный
    Частота кадров : 23,976 кадра/сек
    Цветовое пространство : YUV
    Субдискретизация насыщенности : 4:2:0
    Битовая глубина : 8 бит
    Тип развёртки : Прогрессивная
    Заголовок : _The A-Team_[Extended Cut]_2010г_Sharlto Copley & Quinton_[Ramone]_«Rampage» Jackson & Bradley Charles Cooper & William John_[Liam]_Neeson_
    Язык : English
    Default : Да
    Forced : Нет
    Основные цвета : BT.709
    Характеристики трансфера : BT.709
    Коэффициенты матрицы : BT.709
    Аудио #1
    Идентификатор : 2
    Формат : DTS
    Формат/Информация : Digital Theater Systems
    Режим : 16
    Параметр Endianness формата : Big
    Идентификатор кодека : A_DTS
    Продолжительность : 2 ч. 13 м.
    Вид битрейта : Постоянный
    Битрейт : 768 Кбит/сек
    Каналы : 6 каналов
    Расположение каналов : Front: L C R, Side: L R, LFE
    Частота : 48,0 КГц
    Битовая глубина : 24 бит
    Метод сжатия : С потерями
    Размер потока : 734 Мбайт (2%)
    Заголовок : |Дубляж, Blu-ray CEE, 2010г|
    Язык : Russian
    Default : Да
    Forced : Нет
    Аудио #2
    Идентификатор : 3
    Формат : AC-3
    Формат/Информация : Audio Coding 3
    Расширение режима : CM (complete main)
    Параметр Endianness формата : Big
    Идентификатор кодека : A_AC3
    Продолжительность : 2 ч. 13 м.
    Вид битрейта : Постоянный
    Битрейт : 192 Кбит/сек
    Каналы : 2 канала
    Расположение каналов : Front: L R
    Частота : 48,0 КГц
    Битовая глубина : 16 бит
    Метод сжатия : С потерями
    Размер потока : 183 Мбайт (0%)
    Заголовок : |MVO, ОРТ|
    Язык : Russian
    Default : Нет
    Forced : Нет
    Аудио #3
    Идентификатор : 4
    Формат : AC-3
    Формат/Информация : Audio Coding 3
    Расширение режима : CM (complete main)
    Параметр Endianness формата : Big
    Идентификатор кодека : A_AC3
    Продолжительность : 2 ч. 13 м.
    Вид битрейта : Постоянный
    Битрейт : 448 Кбит/сек
    Каналы : 6 каналов
    Расположение каналов : Front: L C R, Side: L R, LFE
    Частота : 48,0 КГц
    Битовая глубина : 16 бит
    Метод сжатия : С потерями
    Размер потока : 428 Мбайт (1%)
    Заголовок : |Дубляж, Blu-ray CEE|
    Язык : Ukrainian
    Default : Нет
    Forced : Нет
    Аудио #4
    Идентификатор : 5
    Формат : DTS
    Формат/Информация : Digital Theater Systems
    Профиль формата : MA / Core
    Режим : 16
    Параметр Endianness формата : Big
    Идентификатор кодека : A_DTS
    Продолжительность : 2 ч. 13 м.
    Вид битрейта : Переменный
    Битрейт : Неизвестно / 1509 Кбит/сек
    Каналы : 6 каналов
    Расположение каналов : Front: L C R, Side: L R, LFE
    Частота : 48,0 КГц
    Битовая глубина : 24 бит
    Метод сжатия : Без потерь / Lossy
    Заголовок : |acolith|
    Язык : Russian
    Default : Нет
    Forced : Нет
    Аудио #5
    Идентификатор : 6
    Формат : DTS
    Формат/Информация : Digital Theater Systems
    Профиль формата : MA / Core
    Режим : 16
    Параметр Endianness формата : Big
    Идентификатор кодека : A_DTS
    Продолжительность : 2 ч. 13 м.
    Вид битрейта : Переменный
    Битрейт : Неизвестно / 1509 Кбит/сек
    Каналы : 6 каналов
    Расположение каналов : Front: L C R, Side: L R, LFE
    Частота : 48,0 КГц
    Битовая глубина : 24 бит
    Метод сжатия : Без потерь / Lossy
    Заголовок : |Дасевич, Александр Александрович|
    Язык : Russian
    Default : Нет
    Forced : Нет
    Аудио #6
    Идентификатор : 7
    Формат : DTS
    Формат/Информация : Digital Theater Systems
    Профиль формата : MA / Core
    Режим : 16
    Параметр Endianness формата : Big
    Идентификатор кодека : A_DTS
    Продолжительность : 2 ч. 13 м.
    Вид битрейта : Переменный
    Битрейт : Неизвестно / 1509 Кбит/сек
    Каналы : 6 каналов
    Расположение каналов : Front: L C R, Side: L R, LFE
    Частота : 48,0 КГц
    Битовая глубина : 24 бит
    Метод сжатия : Без потерь / Lossy
    Заголовок : |Сербин, Юрий Владимирович|
    Язык : Russian
    Default : Нет
    Forced : Нет
    Аудио #7
    Идентификатор : 8
    Формат : DTS
    Формат/Информация : Digital Theater Systems
    Профиль формата : MA / Core
    Режим : 16
    Параметр Endianness формата : Big
    Идентификатор кодека : A_DTS
    Продолжительность : 2 ч. 13 м.
    Вид битрейта : Переменный
    Битрейт : Неизвестно / 1509 Кбит/сек
    Каналы : 6 каналов
    Расположение каналов : Front: L C R, Side: L R, LFE
    Частота : 48,0 КГц
    Битовая глубина : 24 бит
    Метод сжатия : Без потерь / Lossy
    Заголовок : |Гаврилов, Андрей Юрьевич|
    Язык : Russian
    Default : Нет
    Forced : Нет
    Аудио #8
    Идентификатор : 9
    Формат : DTS
    Формат/Информация : Digital Theater Systems
    Профиль формата : MA / Core
    Режим : 16
    Параметр Endianness формата : Big
    Идентификатор кодека : A_DTS
    Продолжительность : 2 ч. 13 м.
    Вид битрейта : Переменный
    Битрейт : Неизвестно / 1509 Кбит/сек
    Каналы : 6 каналов
    Расположение каналов : Front: L C R, Side: L R, LFE
    Частота : 48,0 КГц
    Битовая глубина : 24 бит
    Метод сжатия : Без потерь / Lossy
    Заголовок : |original|
    Язык : English
    Default : Нет
    Forced : Нет
    Аудио #9
    Идентификатор : 10
    Формат : AC-3
    Формат/Информация : Audio Coding 3
    Расширение режима : CM (complete main)
    Параметр Endianness формата : Big
    Идентификатор кодека : A_AC3
    Продолжительность : 2 ч. 13 м.
    Вид битрейта : Постоянный
    Битрейт : 224 Кбит/сек
    Каналы : 2 канала
    Расположение каналов : Front: L R
    Частота : 48,0 КГц
    Битовая глубина : 16 бит
    Метод сжатия : С потерями
    Размер потока : 214 Мбайт (1%)
    Заголовок : |commentary|
    Язык : English
    Default : Нет
    Forced : Нет
    Текст #1
    Идентификатор : 11
    Формат : UTF-8
    Идентификатор кодека : S_TEXT/UTF8
    Идентификатор кодека/Информация : UTF-8 Plain Text
    Заголовок : forced
    Язык : Russian
    Default : Да
    Forced : Нет
    Текст #2
    Идентификатор : 12
    Формат : UTF-8
    Идентификатор кодека : S_TEXT/UTF8
    Идентификатор кодека/Информация : UTF-8 Plain Text
    Заголовок : full
    Язык : Russian
    Default : Нет
    Forced : Нет
    Текст #3
    Идентификатор : 13
    Формат : UTF-8
    Идентификатор кодека : S_TEXT/UTF8
    Идентификатор кодека/Информация : UTF-8 Plain Text
    Заголовок : forced
    Язык : English
    Default : Нет
    Forced : Нет
    Текст #4
    Идентификатор : 14
    Формат : UTF-8
    Идентификатор кодека : S_TEXT/UTF8
    Идентификатор кодека/Информация : UTF-8 Plain Text
    Заголовок : full
    Язык : English
    Default : Нет
    Forced : Нет
    Текст #5
    Идентификатор : 15
    Формат : UTF-8
    Идентификатор кодека : S_TEXT/UTF8
    Идентификатор кодека/Информация : UTF-8 Plain Text
    Заголовок : _SDH_full
    Язык : English
    Default : Нет
    Forced : Нет
    Текст #6
    Идентификатор : 16
    Формат : UTF-8
    Идентификатор кодека : S_TEXT/UTF8
    Идентификатор кодека/Информация : UTF-8 Plain Text
    Заголовок : commentary
    Язык : English
    Default : Нет
    Forced : Нет
    Меню
    00:00:00.000 : :Gringo in Mexico
    00:05:17.399 : :All Tyred Up
    00:13:31.268 : :Mad Dog
    00:21:10.769 : :80 Missions Later
    00:26:32.340 : :Frat Boys with Trigger Fingers
    00:37:42.802 : :The Plan
    00:45:23.554 : :Plan Blows Apart
    00:49:30.257 : :6 Months of Prison
    00:56:53.868 : :Jamming the Signal
    01:02:40.548 : :Movie Time
    01:09:43.053 : :Tank Turbulence
    01:15:19.639 : :Which Way to Berlin?
    01:23:06.356 : :The Transaction
    01:28:54.578 : :I Trust You
    01:35:56.834 : :Exactly Like Call of Duty
    01:38:35.951 : :Give Me 20 Minutes
    01:43:12.519 : :Ba the Banana
    01:49:42.825 : :Showtime
    01:57:19.573 : :Looking All Over for You
    02:07:00.654 : :End Credits

    Скриншоты






    Интересные Факты

    Карнахан убедил экс-курильщика Нисона, чтобы он прикуривал настоящими сигарами для роли Ганнибала.
    Поскольку Куинтон Джексон до съемок в фильме был спортсменом, ему пришлось уйти из спорта, чтобы сняться в этом фильме.
    Когда еще Джон Синглтон был главным кандидатом на пост режиссера, он планировал взять на роль Боско Баракуса Айс Кьюба.
    На роль Ганнибала Смита рассматривался Брюс Уиллис.
    Вуди Харрельсон и Райан Рейнольдс рассматривались на роль Мэрдока.
    Эмбер Хёрд и Ольга Куриленко рассматривались на роль лейтенанта Сосы.
    После финальных титров показаны два небольших эпизода, в которых приняли участие актеры из одноименного сериала: Дуайт Шульц (Мердок) и Дирк Бенедикт (Красавчик).
    В оригинальном сериале 80-х главные герои были ветеранами Вьетнама.
    Прототипом «Black Forest» послужила частная армия «Black water», известная своей жестокостью.
    Джо Карнахан сам на секунду появляется в кадре в сцене в начале фильма, когда он говорит Смиту позывной вертолёта у госпиталя.
    У военного следователя на суде чётко видна табличка с фамилией на груди с правой стороны, на которой нанесено «Carnahan» в честь режиссёра фильма.
    Судно, показанное в конце фильма, называется «Die Vergeltung» — «Возмездие» в переводе с немецкого.
    Когда показывают в Штутгарте здание Европейского командования США, у него стоит ВАЗ-2108 и мимо проезжает BMW 7-й серии с российским флаговым номером «а005ае».
    Цитата:
    Цитата:

    За исходник спасибо огромное Прагматик(hdclub)
    За дорогу MVO 1-й канал спасибо miha2154
    За голос метра все благодарности в адрес Dunhill200
    Скачать .torrent

    Скачать торрент-файл бесплатно и на максимальной скорости!

    Как скачивать? · Что такое торрент? · Рейтинг и ограничения

    !ВНИМАНИЕ!
    Сайт не распространяет и не хранит электронные версии произведений, а занимается лишь лишь предоставлением доступа к создаваемому пользователями каталогу ссылок на торрент-файлы, которые содержат только списки хеш-сумм, убедительная просьба с жалобами обращаться напрямую к пользователю. Файлы для обмена на трекере предоставлены пользователями сайта, и администрация не несёт ответственности за их содержание. Просьба не заливать файлы, защищенные авторскими правами, а также файлы нелегального содержания!


    _________________
    [Профиль] [ЛС]
    Показать сообщения:    
    Ответить на тему

    Текущее время: Сегодня, в 02:06

    Часовой пояс: GMT + 2



    Вы не можете начинать темы
    Вы не можете отвечать на сообщения
    Вы не можете редактировать свои сообщения
    Вы не можете удалять свои сообщения
    Вы не можете голосовать в опросах
    Вы не можете прикреплять файлы к сообщениям
    Вы не можете скачивать файлы