Register  ·  Log in
Forgot password?

  • Задание К / Assignment K (Вэл Гест / Val Guest) [1968, Великобритания, Боевик, триллер, драма, криминал, DVDRip] MVO

    Reply to topic
    Author Message


    Post 16-Feb-2014 13:02



    Задание К / Assignment K
    Страна: Великобритания
    Жанр: Боевик, триллер, драма, криминал
    Год выпуска: 1968
    Продолжительность: 01:37:16
    Перевод: Профессиональный (многоголосый закадровый)
    Cубтитры: нет
    Режиссер: Вэл Гест / Val Guest
    В ролях: Стивен Бойд, Камилла Спарв, Майкл Редгрейв, Лео МакКерн, Джереми Кемп, Роберт Хоффманн, Джэйн Мэрроу, Карл Мёнер, Виви Бах, Вернер Петерс
    Описание: Филипп Скотт возглавляет успешную компанию, производящую игрушки. Но куклы только прикрытие. На самом деле Скотт — руководитель секретной британской службы. В куклах он переправляет секретные микрофильмы для своих связных в Германии. Окружающие не догадываются о двойной жизни Скотта, а вот вражеские агенты узнают — и похищают его девушку, требуя, чтобы он взамен за ее свободу предоставил список всех своих агентов. Экранизация по произведению: Хартли Ховард.
    Доп. информация: Исходник DVD-5(СПАСИБО! Al12)
    Качество видео: DVDRip
    Формат видео: AVI
    Видео: XviD build 50, 704x304 (2.32:1), 23.976 fps, 1809 kbps avg
    Аудио: AC3 Dolby Digital, 48 kHz, 2/0 (L,R) ch, 192.00 kbps avg


    Complete name : D:\Zadanie.K.1968.XviD.DVDRip-Dego.avi
    Format : AVI
    Format/Info : Audio Video Interleave
    File size : 1.37 GiB
    Duration : 1h 37mn
    Overall bit rate : 2 011 Kbps
    Writing application : VirtualDubMod (build 2540/release)
    Writing library : VirtualDubMod build 2540/release
    ID : 0
    Format : MPEG-4 Visual
    Format profile : AdvancedSimple@L5
    Format settings, BVOP : Yes
    Format settings, QPel : No
    Format settings, GMC : No warppoints
    Format settings, Matrix : Default (MPEG)
    Codec ID : XVID
    Codec ID/Hint : XviD
    Duration : 1h 37mn
    Bit rate : 1 810 Kbps
    Width : 704 pixels
    Height : 304 pixels
    Display aspect ratio : 2.35
    Frame rate : 23.976 fps
    Resolution : 24 bits
    Colorimetry : 4:2:0
    Scan type : Progressive
    Bits/(Pixel*Frame) : 0.353
    Stream size : 1.23 GiB (90%)
    Writing library : XviD 1.2.1 (UTC 2008-12-04)
    ID : 1
    Format : AC-3
    Format/Info : Audio Coding 3
    Codec ID : 2000
    Duration : 1h 37mn
    Bit rate mode : Constant
    Bit rate : 192 Kbps
    Channel(s) : 2 channels
    Channel positions : L R
    Sampling rate : 48.0 KHz
    Stream size : 134 MiB (10%)
    Alignment : Split accross interleaves
    Interleave, duration : 42 ms (1.00 video frame)
    Interleave, preload duration : 500 ms


    Download .torrent

    Download free and at maximum speed!

    How to Download? · What is a torrent? · Ratings and Limitations

    The site does not extend and does not store electronic(digital) versions of products, and only gives access to a reference catalogue created by users on torrent-files which contain only lists of the hash-sums, the earnest entreaty, with complaints(abuse) to access directly to the user. Files for an exchange on tracker are given by users of a site, and the administration does not bear the responsibility for their maintenance. The request to not fill in the files protected by copyrights, and also files of the illegal maintenance!

    [Profile] [PM]
    Display posts from previous:    
    Reply to topic

    The time now is: Today 19:57

    All times are GMT + 3 Hours

    You cannot post new topics in this forum
    You cannot reply to topics in this forum
    You cannot edit your posts in this forum
    You cannot delete your posts in this forum
    You cannot vote in polls in this forum
    You cannot attach files in this forum
    You cannot download files in this forum