BitTorrentTracker PerecTracker.org
BitTorrentTracker PerecTracker.org
    
Регистрация  ·  Вход
 
 · 
Забыли пароль?

  • Патрик / Patrick (Ричард Франклин / Richard Franklin) [1978, Австралия, ужасы, триллер, BDRemux 1080p] [AUS Transfer] MVO (Cinema Prestige) + Sub Rus + Original Eng + Commentary

    Ответить на тему
     
    Автор Сообщение

    Light

    Создавать темы 16-Май-2016 20:25

           

    [Цитировать]

    Патрик / Patrick«Patrick is Nearly Dead... And Still He Kills!»Страна: Австралия
    Жанр: ужасы, триллер
    Год выпуска: 1978
    Продолжительность: 01:52:22
    Перевод: Профессиональный (многоголосый закадровый) Cinema Prestige
    Cубтитры: русские
    Оригинальная аудиодорожка: английский
    -
    Режиссер: Ричард Франклин / Richard Franklin
    В ролях: Сьюзен Пенхалигон, Роберт Хелпманн, Род Муллинар, Брюс Бэрри, Джулия Блейк, Хелен Хемингуэй, Мария Мерседес, Уолтер Пим, Фрэнк Уилсон, Кэрол-Энн Айлетт
    -
    Описание: Юноша по имени Патрик, убивший своих родителей, уже в течение трех лет находится в клинике доктора Роже. Три года он неподвижно лежит на кровати с открытыми глазами, и, по словам врача, мозг пациента в абсолютной отключке. Он, как растение - никаких реакций или рефлексов. И некоторые сотрудники клиники считают, что его давно надо было бы умертвить из гуманных соображений. Но новая медсестра, молоденькая и хорошенькая Кэти, считает иначе. Начав ухаживать за Патриком, она вдруг понимает, что между ними устанавливается какая-то связь, но вскоре в ее жизни начинают происходить нелепые, загадочные и странные события, постепенно перерастающие в кошмары...

    Тип релиза: BDRemux 1080p
    Контейнер: MKV
    Видео: MPEG-4 AVC / NTSC 16:9 / 1920x1080 (1,85:1) / 24905 kbps / 24 fps / 0.500 bit/pixel / High@L4.1
    Аудио 1: Russian / Dolby Digital Audio / 2.0 Ch / 48 kHz / 192 kbps / 16 bit / MVO
    Аудио 2: English / DTS-HD Master Audio / 2.0 Ch / 48 kHz / 2033 kbps / 24-bit (DTS Core: 2.0 Ch / 48 kHz / 1509 kbps / 24-bit) / Original
    Аудио 3: English / Dolby Digital Audio / 2.0 Ch / 48 kHz / 448 kbps / 16 bit / Audio Commentary with Richard Franklin
    Формат субтитров: softsub (SRT)
    Навигация по главам: есть

    MediaInfo

    Общее
    Уникальный идентификатор : 178080745486755624936864508344799758870 (0x85F91AA164D2561ABF362C538BC68A16)
    Полное имя : D:\Patrick.1978.BDRemux.1080p.mkv
    Формат : Matroska
    Версия формата : Version 4 / Version 2
    Размер файла : 21,6 Гбайт
    Продолжительность : 1 ч. 52 м.
    Режим общего битрейта : Переменный
    Общий поток : 27,6 Мбит/сек
    Дата кодирования : UTC 2016-05-15 02:23:01
    Программа кодирования : mkvmerge v9.1.0 ('Little Earthquakes') 64bit
    Библиотека кодирования : libebml v1.3.3 + libmatroska v1.4.4
    Видео
    Идентификатор : 1
    Формат : AVC
    Формат/Информация : Advanced Video Codec
    Профиль формата : High@L4.1
    Параметр CABAC формата : Да
    Параметр ReFrames формата : 4 кадра
    Идентификатор кодека : V_MPEG4/ISO/AVC
    Продолжительность : 1 ч. 52 м.
    Вид битрейта : Переменный
    Битрейт : 24,9 Мбит/сек
    Максимальный битрейт : 37,0 Мбит/сек
    Ширина : 1920 пикселей
    Высота : 1080 пикселей
    Соотношение сторон : 16:9
    Режим частоты кадров : Постоянный
    Частота кадров : 24,000 кадра/сек
    Цветовое пространство : YUV
    Субдискретизация насыщенности : 4:2:0
    Битовая глубина : 8 бит
    Тип развёртки : Прогрессивная
    Бит/(Пиксели*Кадры) : 0.500
    Размер потока : 19,5 Гбайт (90%)
    Язык : aus
    Default : Да
    Forced : Нет
    Аудио #1
    Идентификатор : 2
    Формат : AC-3
    Формат/Информация : Audio Coding 3
    Расширение режима : CM (complete main)
    Параметр Endianness формата : Big
    Идентификатор кодека : A_AC3
    Продолжительность : 1 ч. 52 м.
    Вид битрейта : Постоянный
    Битрейт : 192 Кбит/сек
    Каналы : 2 канала
    Расположение каналов : Front: L R
    Частота : 48,0 КГц
    Частота кадров : 31,250 кадров/сек (1536 spf)
    Метод сжатия : С потерями
    Размер потока : 154 Мбайт (1%)
    Заголовок : MVO / R5
    Язык : Russian
    Default : Да
    Forced : Нет
    Аудио #2
    Идентификатор : 3
    Формат : DTS
    Формат/Информация : Digital Theater Systems
    Профиль формата : MA / Core
    Режим : 16
    Параметр Endianness формата : Big
    Идентификатор кодека : A_DTS
    Продолжительность : 1 ч. 52 м.
    Вид битрейта : Переменный / Постоянный
    Битрейт : 2048 Кбит/сек / 1509 Кбит/сек
    Каналы : 2 канала
    Расположение каналов : Front: L R
    Частота : 48,0 КГц
    Частота кадров : 93,750 кадра/сек (512 spf)
    Битовая глубина : 24 бит
    Метод сжатия : Без потерь / Lossy
    Размер потока : 1,60 Гбайт (7%)
    Заголовок : Original
    Язык : English
    Default : Нет
    Forced : Нет
    Аудио #3
    Идентификатор : 4
    Формат : AC-3
    Формат/Информация : Audio Coding 3
    Расширение режима : CM (complete main)
    Параметр Endianness формата : Big
    Идентификатор кодека : A_AC3
    Продолжительность : 1 ч. 52 м.
    Вид битрейта : Постоянный
    Битрейт : 448 Кбит/сек
    Каналы : 2 канала
    Расположение каналов : Front: L R
    Частота : 48,0 КГц
    Частота кадров : 31,250 кадров/сек (1536 spf)
    Метод сжатия : С потерями
    Размер потока : 360 Мбайт (2%)
    Заголовок : Audio Commentary with Richard Franklin
    Язык : English
    Default : Нет
    Forced : Нет
    Текст
    Идентификатор : 5
    Формат : UTF-8
    Идентификатор кодека : S_TEXT/UTF8
    Идентификатор кодека/Информация : UTF-8 Plain Text
    Продолжительность : 1 ч. 49 м.
    Битрейт : 66 бит/сек
    Count of elements : 815
    Размер потока : 53,3 Кбайт (0%)
    Заголовок : DVD / R5
    Язык : Russian
    Default : Нет
    Forced : Нет
    Меню
    00:00:00.000 : en:00:00:00.000
    00:05:00.417 : en:00:05:00.417
    00:12:08.583 : en:00:12:08.583
    00:22:58.833 : en:00:22:58.833
    00:30:54.958 : en:00:30:54.958
    00:40:34.458 : en:00:40:34.458
    00:51:34.708 : en:00:51:34.708
    01:01:47.583 : en:01:01:47.583
    01:11:29.917 : en:01:11:29.917
    01:20:45.625 : en:01:20:45.625
    01:29:37.042 : en:01:29:37.042
    01:40:56.500 : en:01:40:56.500
    01:50:24.917 : en:01:50:24.917

    Скриншоты

    Скачать .torrent

    Скачать торрент-файл бесплатно и на максимальной скорости!

    Как скачивать? · Что такое торрент? · Рейтинг и ограничения

    !ВНИМАНИЕ!
    Сайт не распространяет и не хранит электронные версии произведений, а занимается лишь лишь предоставлением доступа к создаваемому пользователями каталогу ссылок на торрент-файлы, которые содержат только списки хеш-сумм, убедительная просьба с жалобами обращаться напрямую к пользователю. Файлы для обмена на трекере предоставлены пользователями сайта, и администрация не несёт ответственности за их содержание. Просьба не заливать файлы, защищенные авторскими правами, а также файлы нелегального содержания!


    _________________
    [Профиль] [ЛС]
    Показать сообщения:    
    Ответить на тему

    Текущее время: Сегодня, в 03:16

    Часовой пояс: GMT + 2



    Вы не можете начинать темы
    Вы не можете отвечать на сообщения
    Вы не можете редактировать свои сообщения
    Вы не можете удалять свои сообщения
    Вы не можете голосовать в опросах
    Вы не можете прикреплять файлы к сообщениям
    Вы не можете скачивать файлы