BitTorrentTracker PerecTracker.org
BitTorrentTracker PerecTracker.org
    
Регистрация  ·  Вход
 
 · 
Забыли пароль?

  • Холостяк / Одинокий мужчина / A Single Man (Том Форд / Tom Ford) [2009, США, драма, BDRip 1080p] Dub + MVO (Ukr) + Sub Rus, Eng (x2) + Original Eng

    Ответить на тему
     
    Автор Сообщение

    Light

    Создавать темы 16-Май-2016 20:25

           

    [Цитировать]

    Холостяк / Одинокий мужчина / A Single Man
    Страна: США
    Студия: Fade to Black Productions, Depth of Field, Artina Films
    Жанр: драма
    Год выпуска: 2009
    Продолжительность: 01:40:31
    Перевод: Профессиональный (дублированный) R5
    Cубтитры: русские, английские, английские (SDH), венгерские, норвежские, румынские, испанские, голландские
    Оригинальная аудиодорожка: английский
    Режиссер: Том Форд / Tom Ford
    В ролях: Колин Фёрт, Джулианна Мур, Николас Холт, Мэттью Гуд, Джон Кортахарена, Полетт Ламори, Райан Симпкинс, Джиннифер Гудвин, Тедди Сирс, Пол Батлер
    Описание: Лос-Анджелес, 1962 год. Профессор английской литературы Джордж отводит себе один день для ответа на вопрос, есть ли у него будущее после внезапной смерти любовника Джима, с которым он прожил 16 лет. В рассыпающемся на части мире Джордж ищет утешения у давней подруги Шарлотты, пытается зацепиться за красоту окружающей реальности, чтобы заново открыть смысл жизни.- -Сэмпл: http://sendfile.su/1233935
    Тип релиза: BDRip 1080p [VietHD]
    Контейнер: MKV
    Видео: h.264, 1920x800, 23.976 fps, 16400 kbps
    Аудио #1: Russian: DTS 5.1, 48 kHz/24-bit, 1536 kbps avg |Дубляж, R5|
    Аудио #2: Ukrainian: AC3 2.0, 48 kHz, 192 kbps avg |Многоголосый закадровый, Украина|
    Аудио #3: English: DTS 5.1, 48 kHz/24-bit, 1536 kbps avg |Оригинал|
    Аудио #4: English: AC3 2.0, 48 kHz, 192 kbps avg |Комментарии режиссера Тома Форда|
    Формат субтитров: softsub (SRT)

    MediaInfo

    Complete name : D:\Принятые\A.Single.Man.2009.1080p.BluRay.Rus.Ukr.Eng.HDCLUB.mkv
    Format : Matroska
    Format version : Version 2
    File size : 14.2 GiB
    Duration : 1h 40mn
    Overall bit rate : 20.2 Mbps
    Movie name : A Single Man (2009) - Release for HDCLUB
    Encoded date : UTC 2016-05-14 18:41:10
    Writing application : mkvmerge v5.7.0 ('The Whirlwind') built on Jul 8 2012 20:08:51
    Writing library : libebml v1.2.3 + libmatroska v1.3.0
    Video
    ID : 1
    Format : AVC
    Format/Info : Advanced Video Codec
    Format profile : High@L4.1
    Format settings, CABAC : Yes
    Format settings, ReFrames : 5 frames
    Codec ID : V_MPEG4/ISO/AVC
    Duration : 1h 40mn
    Bit rate : 16.4 Mbps
    Width : 1 920 pixels
    Height : 800 pixels
    Display aspect ratio : 2.40:1
    Frame rate mode : Constant
    Frame rate : 23.976 (24000/1001) fps
    Color space : YUV
    Chroma subsampling : 4:2:0
    Bit depth : 8 bits
    Scan type : Progressive
    Bits/(Pixel*Frame) : 0.445
    Stream size : 11.5 GiB (81%)
    Writing library : x264 core 148 r2665kMod a01e339
    Encoding settings : cabac=1 / ref=5 / deblock=1:-3:-3 / analyse=0x3:0x133 / me=umh / subme=10 / psy=1 / fade_compensate=0.00 / psy_rd=1.05:0.00 / mixed_ref=1 / me_range=24 / chroma_me=1 / trellis=2 / 8x8dct=1 / cqm=0 / deadzone=21,11 / fast_pskip=0 / chroma_qp_offset=-2 / threads=12 / lookahead_threads=3 / sliced_threads=0 / nr=0 / decimate=0 / interlaced=0 / bluray_compat=0 / constrained_intra=0 / fgo=0 / bframes=11 / b_pyramid=2 / b_adapt=2 / b_bias=0 / direct=3 / weightb=1 / open_gop=0 / weightp=2 / keyint=250 / keyint_min=23 / scenecut=40 / intra_refresh=0 / rc_lookahead=60 / rc=crf / mbtree=0 / crf=19.0000 / qcomp=0.60 / qpmin=0 / qpmax=69 / qpstep=4 / vbv_maxrate=62500 / vbv_bufsize=78125 / crf_max=0.0 / nal_hrd=none / filler=0 / ip_ratio=1.30 / pb_ratio=1.20 / aq=3:0.75
    Language : English
    Default : Yes
    Forced : No
    Color range : Limited
    Matrix coefficients : BT.709
    Audio #1
    ID : 2
    Format : DTS
    Format/Info : Digital Theater Systems
    Mode : 16
    Format settings, Endianness : Big
    Codec ID : A_DTS
    Duration : 1h 40mn
    Bit rate mode : Constant
    Bit rate : 1 509 Kbps
    Channel(s) : 6 channels
    Channel positions : Front: L C R, Side: L R, LFE
    Sampling rate : 48.0 KHz
    Frame rate : 93.750 fps (512 spf)
    Bit depth : 24 bits
    Compression mode : Lossy
    Stream size : 1.06 GiB (7%)
    Title : |Дубляж, R5|
    Language : Russian
    Default : Yes
    Forced : No
    Audio #2
    ID : 3
    Format : AC-3
    Format/Info : Audio Coding 3
    Mode extension : CM (complete main)
    Format settings, Endianness : Big
    Codec ID : A_AC3
    Duration : 1h 40mn
    Bit rate mode : Constant
    Bit rate : 192 Kbps
    Channel(s) : 2 channels
    Channel positions : Front: L R
    Sampling rate : 48.0 KHz
    Frame rate : 31.250 fps (1536 spf)
    Compression mode : Lossy
    Stream size : 138 MiB (1%)
    Title : |Многоголосый закадровый, Украина|
    Language : Ukrainian
    Default : No
    Forced : No
    Audio #3
    ID : 4
    Format : DTS
    Format/Info : Digital Theater Systems
    Mode : 16
    Format settings, Endianness : Big
    Codec ID : A_DTS
    Duration : 1h 40mn
    Bit rate mode : Constant
    Bit rate : 1 509 Kbps
    Channel(s) : 6 channels
    Channel positions : Front: L C R, Side: L R, LFE
    Sampling rate : 48.0 KHz
    Frame rate : 93.750 fps (512 spf)
    Bit depth : 24 bits
    Compression mode : Lossy
    Stream size : 1.06 GiB (7%)
    Language : English
    Default : No
    Forced : No
    Audio #4
    ID : 5
    Format : AC-3
    Format/Info : Audio Coding 3
    Format profile : Dolby Digital
    Mode extension : CM (complete main)
    Format settings, Endianness : Big
    Codec ID : A_AC3
    Duration : 1h 40mn
    Bit rate mode : Constant
    Bit rate : 192 Kbps
    Channel(s) : 2 channels
    Channel positions : Front: L R
    Sampling rate : 48.0 KHz
    Frame rate : 31.250 fps (1536 spf)
    Compression mode : Lossy
    Stream size : 138 MiB (1%)
    Title : Commentary by Tom Ford
    Language : English
    Default : No
    Forced : No
    Text #1
    ID : 6
    Format : UTF-8
    Codec ID : S_TEXT/UTF8
    Codec ID/Info : UTF-8 Plain Text
    Language : Russian
    Default : No
    Forced : No
    Text #2
    ID : 7
    Format : UTF-8
    Codec ID : S_TEXT/UTF8
    Codec ID/Info : UTF-8 Plain Text
    Language : English
    Default : No
    Forced : No
    Text #3
    ID : 8
    Format : UTF-8
    Codec ID : S_TEXT/UTF8
    Codec ID/Info : UTF-8 Plain Text
    Title : SDH
    Language : English
    Default : No
    Forced : No
    Text #4
    ID : 9
    Format : UTF-8
    Codec ID : S_TEXT/UTF8
    Codec ID/Info : UTF-8 Plain Text
    Language : Hungarian
    Default : No
    Forced : No
    Text #5
    ID : 10
    Format : UTF-8
    Codec ID : S_TEXT/UTF8
    Codec ID/Info : UTF-8 Plain Text
    Language : Norwegian
    Default : No
    Forced : No
    Text #6
    ID : 11
    Format : UTF-8
    Codec ID : S_TEXT/UTF8
    Codec ID/Info : UTF-8 Plain Text
    Language : Romanian
    Default : No
    Forced : No
    Text #7
    ID : 12
    Format : UTF-8
    Codec ID : S_TEXT/UTF8
    Codec ID/Info : UTF-8 Plain Text
    Language : Spanish
    Default : No
    Forced : No
    Text #8
    ID : 13
    Format : UTF-8
    Codec ID : S_TEXT/UTF8
    Codec ID/Info : UTF-8 Plain Text
    Language : Dutch
    Default : No
    Forced : No
    Menu
    00:00:00.000 : :00:00:00.000
    00:07:40.168 : :00:07:40.168
    00:14:39.462 : :00:14:39.462
    00:16:50.259 : :00:16:50.259
    00:21:01.218 : :00:21:01.218
    00:29:40.737 : :00:29:40.737
    00:35:45.060 : :00:35:45.060
    00:40:31.095 : :00:40:31.095
    00:47:58.000 : :00:47:58.000
    00:50:51.966 : :00:50:51.966
    00:55:41.171 : :00:55:41.171
    01:03:29.180 : :01:03:29.180
    01:09:17.362 : :01:09:17.362
    01:18:28.203 : :01:18:28.203
    01:21:21.668 : :01:21:21.668
    01:24:38.115 : :01:24:38.115

    Source vs Encode




    Скриншоты

    Скачать .torrent

    Скачать торрент-файл бесплатно и на максимальной скорости!

    Как скачивать? · Что такое торрент? · Рейтинг и ограничения

    !ВНИМАНИЕ!
    Сайт не распространяет и не хранит электронные версии произведений, а занимается лишь лишь предоставлением доступа к создаваемому пользователями каталогу ссылок на торрент-файлы, которые содержат только списки хеш-сумм, убедительная просьба с жалобами обращаться напрямую к пользователю. Файлы для обмена на трекере предоставлены пользователями сайта, и администрация не несёт ответственности за их содержание. Просьба не заливать файлы, защищенные авторскими правами, а также файлы нелегального содержания!


    _________________
    [Профиль] [ЛС]
    Показать сообщения:    
    Ответить на тему

    Текущее время: Сегодня, в 10:38

    Часовой пояс: GMT + 2



    Вы не можете начинать темы
    Вы не можете отвечать на сообщения
    Вы не можете редактировать свои сообщения
    Вы не можете удалять свои сообщения
    Вы не можете голосовать в опросах
    Вы не можете прикреплять файлы к сообщениям
    Вы не можете скачивать файлы