BitTorrentTracker PerecTracker.org
BitTorrentTracker PerecTracker.org
    
Регистрация  ·  Вход
 
 · 
Забыли пароль?

  • 12 лет рабства / 12 Years a Slave (Стив МакКуин) [2013, США, Великобритания, драма, биография, история, WEB-DL HD (720p)] DUB, Original + SUB (eng)

    Ответить на тему
     
    Автор Сообщение

    rechyn

    Создавать темы 16-Май-2016 20:25

           

    [Цитировать]

    12 лет рабства / 12 Years a Slave
    "The extraordinary true story of Solomon Northup"
    8.174 / 10
    -Год выпуска: 2013
    Страна: США, Великобритания
    Жанр: драма, биография, история
    Продолжительность: 133 мин.
    Перевод: Профессиональный дублированный перевод
    Оригинальная аудиодорожка: Есть
    Cубтитры: Английские полные, английские полные SDH и английские полные цветные SDH
    Режиссёр: Стив МакКуин
    Сценарий: Джон Ридли, Соломон Нортап
    Продюсер: Деде Гарднер, Энтони Катагас, Джереми Клейнер
    Оператор: Шон Боббитт
    Композитор: Ханс Циммер
    Художник: Адам Штокхаузен, Дэвид Стейн, Патриция Норрис
    Монтаж: Джо Уокер
    В ролях: Чиветель Эджиофор, Майкл Фассбендер, Бенедикт Камбербэтч, Пол Дано, Пол Джаматти, Лупита Нионго, Сара Полсон, Брэд Питт, Элфри Вудард, Куавенжаней Уоллис
    Роли дублировали: Денис Беспалый, Илья Исаев, Всеволод Кузнецов, Василиса Эльдарова, Даниил Эльдаров
    Сборы в США: $35 631 688
    Мировая премьера: 30 августа 2013
    Премьера (РФ): 12 декабря 2013, Централ Партнершип
    Описание: Соломон Нортап был женатым и образованным мужчиной, который жил и работал в Нью-Йорке, когда два человека однажды предложили ему привлекательную работу в Вашингтоне. По прибытии он был похищен, стал рабом и влачил жалкую жизнь, переходя от одного хозяина к другому.-Качество исходника: WEB-DL 720p (HDClub)
    Качество: WEB-DL
    Тип: 720p
    Контейнер: m4v
    Видео: 1280x720 at 24.000 fps, MPEG-4 AVC, ~4100 kbps avg
    Аудио#1: Russian: 48 kHz, ААС, 2/0 (L,R), ~160.00 kbps avg |Дубляж, iTunes Russia|
    Аудио#2: English: 48 kHz, ААС, 2/0 (L,R), ~160.00 kbps avg
    Аудио#3: Russian: 48 kHz, AC3, 3/2 (L,C,R,l,r) + LFE ch, ~384.00 kbps avg |Дубляж, iTunes Russia|
    Аудио#4: English: 48 kHz, AC3, 3/2 (L,C,R,l,r) + LFE ch, ~384.00 kbps avg
    Субтитры №1: English: |Полные|
    Субтитры №2: English: |Полные, SDH|
    Субтитры №3: English: |Полные, SDH Colored|-

    Знаете ли Вы, что...

    • Фильм снят по мотивам автобиографии Соломона Нортапа «12 лет рабства» (Twelve Years a Slave, 1853).
    • Этот же сюжет, основанный на мемуарах, написанных в 1853 году, использовался в телевизионном фильме «Одиссея Соломона Нортапа» (1984).
    • Съемки фильма заняли 35 дней. Они проходили на плантации в Вашери, штат Луизиана, недалеко от того места, где содержался реальный Нортап. Порт Нового Орлеана и Саратога воссоздали в декорациях.
    • Спустя год после возвращения домой Соломон Нортап опубликовал свои мемуары. Книга вышла в свет за 9 лет до Гражданской войны, стала бестселлером и вызвала огромную дискуссию в американском обществе. Однако в 20 веке она не переиздавалась и была забыта до тех пор, пока Сью Икин в 1968 году не написала работу, документально подтвердившую историю Нортапа. Режиссер Стив МакКуин узнал о существовании мемуаров Нортапа от своей жены.
    • В этом фильме снялся актер Таран Киллэм, который часто пародирует Брэда Питта на шоу «Субботним вечером в прямом эфире» (1975). И хотя Брэд Питт тоже снялся в этом фильме, на съемочной площадке актеры ни разу не пересекались. Компания Питта — Plan B — занималась продюсированием фильма, сам же актер исполнил в нем лишь небольшую роль.

    Ошибки в фильме

    • В одной из сцен можно заметить в болоте водяной гаицинт (эйхорния), водное растение, произрастающее в Южной Америке. Эти растения были ввезены в Северную Америку только после 1884 года.

    -

    iTunes Meta Tags for country us

    Name: 12 Years a Slave
    Artist: Steve McQueen
    Genre: Drama
    Release Date: 2013-08-30T08:00:00Z
    Description: Соломон Нортап был женатым и образованным мужчиной, который жил и работал в Нью-Йорке, когда два человека однажды предложили ему привлекательную работу в Вашингтоне. По прибытии он был похищен, стал рабом и влачил жалкую жизнь, переходя от одного хозяина к другому.
    Long Description: Соломон Нортап был женатым и образованным мужчиной, который жил и работал в Нью-Йорке, когда два человека однажды предложили ему привлекательную работу в Вашингтоне. По прибытии он был похищен, стал рабом и влачил жалкую жизнь, переходя от одного хозяина к другому.
    Rating: R
    Studio: 20th Century Fox
    Cast: Чиветель Эджиофор, Майкл Фассбендер, Бенедикт Камбербэтч, Пол Дано, Пол Джаматти, Лупита Нионго, Сара Полсон, Брэд Питт, Элфри Вудард, Куавенжаней Уоллис
    Director: Стив МакКуин
    Producers: Деде Гарднер, Энтони Катагас, Джереми Клейнер
    Screenwriters: Джон Ридли, Соломон Нортап
    Copyright: © 2013 Twentieth Century Fox Film Corporation. All rights reserved.
    contentID: 740366955
    XID: Apple:vendor_id:2013-606646
    Sort Name: 12 Years a Slave

    iTunes Meta Tags for country ru

    Name: 12 лет рабства
    Artist: Стив МакКуин
    Genre: Drama
    Release Date: 2013-08-30T08:00:00Z
    Description: Соломон Нортап был женатым и образованным мужчиной, который жил и работал в Нью-Йорке, когда два человека однажды предложили ему привлекательную работу в Вашингтоне. По прибытии он был похищен, стал рабом и влачил жалкую жизнь, переходя от одного хозяина к другому.
    Long Description: Соломон Нортап был женатым и образованным мужчиной, который жил и работал в Нью-Йорке, когда два человека однажды предложили ему привлекательную работу в Вашингтоне. По прибытии он был похищен, стал рабом и влачил жалкую жизнь, переходя от одного хозяина к другому.
    Rating: 16+
    Rating Annotation: Rated 16+ Зрителям, старше 16 лет
    Studio: New Regency Pictures
    Cast: Чиветель Эджиофор, Майкл Фассбендер, Бенедикт Камбербэтч, Пол Дано, Пол Джаматти, Лупита Нионго, Сара Полсон, Брэд Питт, Элфри Вудард, Куавенжаней Уоллис
    Director: Стив МакКуин
    Producers: Деде Гарднер, Энтони Катагас, Джереми Клейнер
    Screenwriters: Джон Ридли, Соломон Нортап
    Copyright: © 2013 New Regency Pictures
    contentID: 816429319
    XID: Apple:vendor_id:2013-606646
    Sort Name: 12 лет рабства

    MediaInfo 720p Release

    Общее
    Полное имя : 12 Years a Slave (HD).m4v
    Формат : MPEG-4
    Идентификатор кодека : M4V  (M4V /M4A /mp42/isom)
    Размер файла : 4,90 Гбайт
    Продолжительность : 2 ч. 14 м.
    Режим общего битрейта : Переменный
    Общий поток : 5214 Кбит/сек
    Название фильма : 12 Years a Slave
    Исполнитель : Steve McQueen
    Режиссёр : Стив МакКуин
    Исполнитель : Чиветель Эджиофор / Майкл Фассбендер / Бенедикт Камбербэтч / Пол Дано / Пол Джаматти / Лупита Нионго / Сара Полсон / Брэд Питт / Элфри Вудард / Куавенжаней Уоллис
    Сценарист : Джон Ридли / Соломон Нортап
    Продюсер : Деде Гарднер / Энтони Катагас / Джереми Клейнер
    Студия-производитель : 20th Century Fox
    Жанр : Drama
    Тип содержимого : Short Film
    Описание : Соломон Нортап был женатым и образованным мужчиной, который жил и работал в Нью-Йорке, когда два человека однажды предложили ему привлекательную работу в Вашингтоне. По прибытии он был похищен, стал рабом и влачил жалкую жизнь, переходя от одного хозяина к другому.
    Дата записи : UTC 2013-08-30 08:00:00
    Дата кодирования : UTC 2016-05-16 11:44:27
    Дата пометки : UTC 2016-05-16 12:02:01
    Авторское право : © 2013 Twentieth Century Fox Film Corporation. All rights reserved.
    Обложка : Yes
    Оценка : None
    Title/Sort : 12 Years a Slave
    LongDescription : Соломон Нортап был женатым и образованным мужчиной, который жил и работал в Нью-Йорке, когда два человека однажды предложили ему привлекательную работу в Вашингтоне. По прибытии он был похищен, стал рабом и влачил жалкую жизнь, переходя от одного хозяина к другому.
    HDVideo : Yes
    AppleStoreCatalogID : 740366955
    Vendor : Apple:vendor_id:2013-606646
    ContentRating : mpaa|R|400|
    Видео #1
    Идентификатор : 1
    Формат : AVC
    Формат/Информация : Advanced Video Codec
    Профиль формата : High@L3.1
    Параметр CABAC формата : Нет
    Параметр ReFrames формата : 2 кадра
    Идентификатор кодека : avc1
    Идентификатор кодека/Информация : Advanced Video Coding
    Продолжительность : 2 ч. 13 м.
    Продолжительность оригинала : 2 ч. 13 м.
    Битрейт : 4129 Кбит/сек
    Ширина : 1280 пикселей
    Высота : 720 пикселей
    Соотношение сторон : 16:9
    Режим частоты кадров : Переменный
    Частота кадров : 24,000 кадра/сек
    Минимальная частота кадров : 23,810 кадра/сек
    Максимальная частота кадров : 24,390 кадра/сек
    Цветовое пространство : YUV
    Субдискретизация насыщенности : 4:2:0
    Битовая глубина : 8 бит
    Тип развёртки : Прогрессивная
    Бит/(Пиксели*Кадры) : 0.187
    Размер потока : 3,86 Гбайт (79%)
    Размер потока оригинала : 3,86 Гбайт (79%)
    Заголовок : Main Program
    Язык : English
    Дата кодирования : UTC 2016-05-16 11:44:27
    Дата пометки : UTC 2016-05-16 11:45:40
    Цветовой диапазон : Limited
    Основные цвета : BT.709
    Характеристики трансфера : BT.709
    Коэффициенты матрицы : BT.709
    Menus : 9,10
    Видео #2
    Идентификатор : 10
    Формат : JPEG
    Идентификатор кодека : jpeg
    Продолжительность : 2 ч. 13 м.
    Вид битрейта : Переменный
    Битрейт : 432 бит/сек
    Ширина : 640 пикселей
    Высота : 360 пикселей
    Соотношение сторон : 16:9
    Режим частоты кадров : Постоянный
    Частота кадров : 0,001 кадр/сек
    Цветовое пространство : YUV
    Субдискретизация насыщенности : 4:2:0
    Битовая глубина : 8 бит
    Метод сжатия : С потерями
    Бит/(Пиксели*Кадры) : 1.875
    Размер потока : 950 Кбайт (0%)
    Заголовок : Chapter Images
    Язык : English
    Default : Нет
    Дата кодирования : UTC 2016-05-16 12:01:43
    Дата пометки : UTC 2016-05-16 12:01:44
    Menu For : 1
    Аудио #1
    Идентификатор : 2
    Формат : AAC
    Формат/Информация : Advanced Audio Codec
    Профиль формата : LC
    Идентификатор кодека : 40
    Продолжительность : 2 ч. 13 м.
    Вид битрейта : Переменный
    Битрейт : 164 Кбит/сек
    Максимальный битрейт : 265 Кбит/сек
    Каналы : 2 канала
    Расположение каналов : Front: L R
    Частота : 48,0 КГц
    Частота кадров : 46,875 кадров/сек (1024 spf)
    Метод сжатия : С потерями
    Размер потока : 157 Мбайт (3%)
    Заголовок : Russian DUB from iTunes Stereo
    Язык : Russian
    Default : Да
    Alternate group : 1
    Дата кодирования : UTC 2016-05-16 11:44:27
    Дата пометки : UTC 2016-05-16 11:45:40
    Fallback From : 4
    Menus : 9
    Аудио #2
    Идентификатор : 3
    Формат : AAC
    Формат/Информация : Advanced Audio Codec
    Профиль формата : LC
    Идентификатор кодека : 40
    Продолжительность : 2 ч. 14 м.
    Вид битрейта : Переменный
    Битрейт : 163 Кбит/сек
    Максимальный битрейт : 271 Кбит/сек
    Каналы : 2 канала
    Расположение каналов : Front: L R
    Частота : 48,0 КГц
    Частота кадров : 46,875 кадров/сек (1024 spf)
    Метод сжатия : С потерями
    Размер потока : 157 Мбайт (3%)
    Заголовок : English Stereo
    Язык : English
    Default : Нет
    Alternate group : 1
    Дата кодирования : UTC 2016-05-16 11:44:27
    Дата пометки : UTC 2016-05-16 11:44:34
    Fallback From : 5
    Аудио #3
    Идентификатор : 4
    Формат : AC-3
    Формат/Информация : Audio Coding 3
    Расширение режима : CM (complete main)
    Параметр Endianness формата : Big
    Идентификатор кодека : ac-3
    Продолжительность : 2 ч. 13 м.
    Вид битрейта : Постоянный
    Битрейт : 384 Кбит/сек
    Каналы : 6 каналов
    Расположение каналов : Front: L C R, Side: L R, LFE
    Частота : 48,0 КГц
    Частота кадров : 31,250 кадров/сек (1536 spf)
    Битовая глубина : 16 бит
    Метод сжатия : С потерями
    Размер потока : 368 Мбайт (7%)
    Заголовок : Russian DUB from iTunes DD 5.1
    Язык : Russian
    Default : Inherited From: 2
    Alternate group : 1
    Дата кодирования : UTC 2016-05-16 11:44:27
    Дата пометки : UTC 2016-05-16 11:45:40
    Fallback To : 2
    Аудио #4
    Идентификатор : 5
    Формат : AC-3
    Формат/Информация : Audio Coding 3
    Расширение режима : CM (complete main)
    Параметр Endianness формата : Big
    Идентификатор кодека : ac-3
    Продолжительность : 2 ч. 13 м.
    Вид битрейта : Постоянный
    Битрейт : 384 Кбит/сек
    Каналы : 6 каналов
    Расположение каналов : Front: L C R, Side: L R, LFE
    Частота : 48,0 КГц
    Частота кадров : 31,250 кадров/сек (1536 spf)
    Битовая глубина : 16 бит
    Метод сжатия : С потерями
    Размер потока : 368 Мбайт (7%)
    Заголовок : English DD 5.1
    Язык : English
    Default : Нет
    Alternate group : 1
    Дата кодирования : UTC 2016-05-16 11:44:27
    Дата пометки : UTC 2016-05-16 11:44:32
    Fallback To : 3
    Текст #1
    Идентификатор : 6
    Формат : Timed Text
    Режим смешивания : sbtl
    Идентификатор кодека : tx3g
    Продолжительность : 2 ч. 13 м.
    Вид битрейта : Переменный
    Битрейт : 51 бит/сек
    Размер потока : 49,7 Кбайт (0%)
    Заголовок : English Subtitle
    Язык : English
    Default : Да
    Forced : Нет
    Alternate group : 2
    Дата кодирования : UTC 2016-05-16 11:58:24
    Дата пометки : UTC 2016-05-16 11:58:24
    Текст #2
    Идентификатор : 7
    Формат : Timed Text
    Режим смешивания : sbtl
    Идентификатор кодека : tx3g
    Продолжительность : 2 ч. 13 м.
    Вид битрейта : Переменный
    Битрейт : 55 бит/сек
    Размер потока : 53,6 Кбайт (0%)
    Заголовок : English SDH Subtitle
    Язык : English
    Default : Нет
    Forced : Нет
    Alternate group : 2
    Дата кодирования : UTC 2016-05-16 12:00:34
    Дата пометки : UTC 2016-05-16 12:00:34
    Текст #3
    Идентификатор : 8
    Формат : Timed Text
    Режим смешивания : sbtl
    Идентификатор кодека : tx3g
    Продолжительность : 2 ч. 13 м.
    Вид битрейта : Переменный
    Битрейт : 55 бит/сек
    Размер потока : 53,6 Кбайт (0%)
    Заголовок : English SDH Colored Subtitle
    Язык : English
    Default : Нет
    Forced : Нет
    Alternate group : 2
    Дата кодирования : UTC 2016-05-16 12:00:34
    Дата пометки : UTC 2016-05-16 12:00:34
    Меню #1
    00:00:00.000 : 1
    00:11:12.000 : 2
    00:18:23.000 : 3
    00:25:27.000 : 4
    00:32:36.000 : 5
    00:39:37.000 : 6
    00:46:38.000 : 7
    00:53:52.000 : 8
    01:00:59.000 : 9
    01:08:04.000 : 10
    01:15:04.000 : 11
    01:22:30.000 : 12
    01:29:49.000 : 13
    01:38:01.000 : 14
    01:45:01.000 : 15
    01:52:56.000 : 16
    02:00:08.000 : 17
    02:07:04.000 : 18
    Меню #2
    Идентификатор : 9
    Идентификатор кодека : text
    Продолжительность : 2 ч. 13 м.
    Заголовок : Chapter Titles
    Язык : English
    Дата кодирования : UTC 2016-05-16 12:01:39
    Дата пометки : UTC 2016-05-16 12:01:39
    Menu For : 2,1
    00:00:00.000 : 1
    00:11:12.000 : 2
    00:18:23.000 : 3
    00:25:27.000 : 4
    00:32:36.000 : 5
    00:39:37.000 : 6
    00:46:38.000 : 7
    00:53:52.000 : 8
    01:00:59.000 : 9
    01:08:04.000 : 10
    01:15:04.000 : 11
    01:22:30.000 : 12
    01:29:49.000 : 13
    01:38:01.000 : 14
    01:45:01.000 : 15
    01:52:56.000 : 16
    02:00:08.000 : 17
    02:07:04.000 : 18
    Вид битрейта : VBR

    Скриншоты 720p Release


    -
    Цитата:
    Цитата:

    • За основу взят WEB-DL из iTunes Russia и к нему аккуратно прикручена оригинальная дорога и субтитры.
    -

    Релиз подготовлен для просмотра на Apple TV, iPad, iPhone, iPod Touch.
    Для просмотра данного релиза на компьютере с ОС Windows рекомендуется использовать VLC media player
    Скачать .torrent

    Скачать торрент-файл бесплатно и на максимальной скорости!

    Как скачивать? · Что такое торрент? · Рейтинг и ограничения

    !ВНИМАНИЕ!
    Сайт не распространяет и не хранит электронные версии произведений, а занимается лишь лишь предоставлением доступа к создаваемому пользователями каталогу ссылок на торрент-файлы, которые содержат только списки хеш-сумм, убедительная просьба с жалобами обращаться напрямую к пользователю. Файлы для обмена на трекере предоставлены пользователями сайта, и администрация не несёт ответственности за их содержание. Просьба не заливать файлы, защищенные авторскими правами, а также файлы нелегального содержания!


    _________________
    [Профиль] [ЛС]
    Показать сообщения:    
    Ответить на тему

    Текущее время: Сегодня, в 09:49

    Часовой пояс: GMT + 2



    Вы не можете начинать темы
    Вы не можете отвечать на сообщения
    Вы не можете редактировать свои сообщения
    Вы не можете удалять свои сообщения
    Вы не можете голосовать в опросах
    Вы не можете прикреплять файлы к сообщениям
    Вы не можете скачивать файлы