Register  ·  Log in
Forgot password?

  • Стоунволл / Stonewall (Роланд Эммерих / Roland Emmerich) [2015, США, Драма, WEB-DLRip] DVO (Parovoz Production)

    Reply to topic
    Author Message


    Post 16-May-2016 21:25



    Стоунволл / Stonewall
    Страна: США
    Жанр: Драма
    Год выпуска: 2015
    Продолжительность: 02:09:01
    Перевод: Любительский (двухголосый закадровый) Parovoz Production
    Cубтитры: нет
    Режиссер: Роланд Эммерих / Roland Emmerich
    В ролях: Джереми Ирвин, Джонни Бошан, Джои Кинг, Калеб Лэндри Джонс, Мэтт Крэйвен, Джонатан Риз Майерс, Рон Перлман, Карл Глусман, Дэвид Кабитт, Аттикус Митчелл
    Описание: В основу фильма легли реальные события, случившиеся 28 июня 1969 года в баре «Стоунуолл», расположенном в Гринвич-Виллидж в Нью-Йорке. Этот бар принадлежал мафии и представлял собой, по сути, гей-клуб: здесь собирались гомосексуалы и трансгендеры со всего Большого Яблока. 28 июня в «Стоунуолл» ворвалась полиция, и это событие стало пиковым моментом в деле развития движения за права геев. Главным героем картины станет молодой человек, в котором именно после известий об облаве на геев в «Стоунуолле» проснулось политическое и гражданское самосознание.
    Качество видео: WEB-DLRip
    Формат видео: AVI
    Видео: Хvid; 720x304 (4:2:0); 23.976 fps; 1192 kbps avg
    Аудио: MP3 ; 2 Сh, 48.0 KHz, 320 кб/с


    Format : AVI
    Format/Info : Audio Video Interleave
    File size : 1.37 GiB
    Duration : 2h 9mn
    Overall bit rate : 1 521 Kbps
    Writing application : VirtualDubMod | || (build 2550/release)
    Writing library : VirtualDubMod build 2550/release
    ID : 0
    Format : MPEG-4 Visual
    Format profile : Advanced Simple@L5
    Format settings, BVOP : 2
    Format settings, QPel : No
    Format settings, GMC : No warppoints
    Format settings, Matrix : Custom
    Codec ID : XVID
    Codec ID/Hint : XviD
    Duration : 2h 9mn
    Bit rate : 1 192 Kbps
    Width : 720 pixels
    Height : 304 pixels
    Display aspect ratio : 2.35:1
    Frame rate : 23.976 (23976/1000) fps
    Color space : YUV
    Chroma subsampling : 4:2:0
    Bit depth : 8 bits
    Scan type : Progressive
    Compression mode : Lossy
    Bits/(Pixel*Frame) : 0.227
    Stream size : 1.07 GiB (78%)
    Writing library : XviD 1.2.1 (UTC 2008-12-04)
    ID : 1
    Format : MPEG Audio
    Format version : Version 1
    Format profile : Layer 3
    Mode : Joint stereo
    Codec ID : 55
    Codec ID/Hint : MP3
    Duration : 2h 9mn
    Bit rate mode : Constant
    Bit rate : 320 Kbps
    Channel(s) : 2 channels
    Sampling rate : 48.0 KHz
    Compression mode : Lossy
    Stream size : 295 MiB (21%)
    Alignment : Aligned on interleaves
    Interleave, duration : 42 ms (1.00 video frame)
    Interleave, preload duration : 504 ms

    Скриншот c названием фильма


    Download .torrent

    Download free and at maximum speed!

    How to Download? · What is a torrent? · Ratings and Limitations

    The site does not extend and does not store electronic(digital) versions of products, and only gives access to a reference catalogue created by users on torrent-files which contain only lists of the hash-sums, the earnest entreaty, with complaints(abuse) to access directly to the user. Files for an exchange on tracker are given by users of a site, and the administration does not bear the responsibility for their maintenance. The request to not fill in the files protected by copyrights, and also files of the illegal maintenance!

    [Profile] [PM]
    Display posts from previous:    
    Reply to topic

    The time now is: Today 23:18

    All times are GMT + 3 Hours

    You cannot post new topics in this forum
    You cannot reply to topics in this forum
    You cannot edit your posts in this forum
    You cannot delete your posts in this forum
    You cannot vote in polls in this forum
    You cannot attach files in this forum
    You cannot download files in this forum