BitTorrentTracker PerecTracker.org
BitTorrentTracker PerecTracker.org
    
Регистрация  ·  Вход
 
 · 
Забыли пароль?

  • Дорога в Утопию / Road To Utopia (Хэл Уолкер / Hal Walker) [1946, США, Мюзикл, комедия, приключения, семейный, DVDRip] VO (Яковлев)

    Ответить на тему
     
    Автор Сообщение

    Columb

    Создавать темы 16-Фев-2014 11:59

           

    [Цитировать]

    Дорога в Утопию / Road To Utopia
    Страна: США
    Жанр: Мюзикл, комедия, приключения, семейный
    Год выпуска: 1946
    Продолжительность: 01:25:51
    Перевод: Одноголосый закадровый Алексей Яковлев
    Cубтитры: нет
    Режиссер: Хэл Уолкер / Hal Walker
    В ролях: Бинг Кросби, Боб Хоуп, Дороти Ламур, Хиллари Брук, Дагласс Дамбрилл, Джек Ла Ру, Роберт Бэррат, Нестор Пайва, Роберт Бенчли, Джордж Андерсон
    Описание: Два исполнителя музыкальных номеров решают отправиться на Аляску с целью, как вы понимаете, сделать состояние. Во время путешествия на корабле они находят карту указывающую путь к золоту, которую потеряли два головореза, МакГурк и Сперрай. Они, в свою очередь, украли карту у законной наследницы её составителя. Замаскировавшись под головорезов, артисты отправляются на поиски золота, а настоящие бандиты идут по их следу...
    Доп. информация: Исходник DVD-9 (СПАСИБО! Al12)
    Сэмпл: http://multi-up.com/951499
    Качество видео: DVDRip
    Формат видео: AVI
    Видео: XviD build 50, 688x512 (1.34:1), 25 fps, 1009 kbps avg
    Аудио: AC3 Dolby Digital, 48 kHz, 2/0 (L,R) ch, 192.00 kbps avg

    MediaInfo

    General
    Complete name : D:\Doroga.v.Utopiju.1946.XviD.DVDRip-Dego.avi
    Format : AVI
    Format/Info : Audio Video Interleave
    File size : 744 MiB
    Duration : 1h 25mn
    Overall bit rate : 1 211 Kbps
    Writing application : VirtualDubMod 1.5.10.2 (build 2540/release)
    Writing library : VirtualDubMod build 2540/release
    Video
    ID : 0
    Format : MPEG-4 Visual
    Format profile : AdvancedSimple@L5
    Format settings, BVOP : Yes
    Format settings, QPel : No
    Format settings, GMC : No warppoints
    Format settings, Matrix : Default (MPEG)
    Codec ID : XVID
    Codec ID/Hint : XviD
    Duration : 1h 25mn
    Bit rate : 1 009 Kbps
    Width : 688 pixels
    Height : 512 pixels
    Display aspect ratio : 4/3
    Frame rate : 25.000 fps
    Resolution : 24 bits
    Colorimetry : 4:2:0
    Scan type : Progressive
    Bits/(Pixel*Frame) : 0.115
    Stream size : 620 MiB (83%)
    Writing library : XviD 1.2.1 (UTC 2008-12-04)
    Audio
    ID : 1
    Format : AC-3
    Format/Info : Audio Coding 3
    Codec ID : 2000
    Duration : 1h 25mn
    Bit rate mode : Constant
    Bit rate : 192 Kbps
    Channel(s) : 2 channels
    Channel positions : L R
    Sampling rate : 48.0 KHz
    Stream size : 118 MiB (16%)
    Alignment : Split accross interleaves
    Interleave, duration : 40 ms (1.00 video frame)
    Interleave, preload duration : 500 ms

    Скриншоты

    Скачать .torrent

    Скачать торрент-файл бесплатно и на максимальной скорости!

    Как скачивать? · Что такое торрент? · Рейтинг и ограничения

    !ВНИМАНИЕ!
    Сайт не распространяет и не хранит электронные версии произведений, а занимается лишь лишь предоставлением доступа к создаваемому пользователями каталогу ссылок на торрент-файлы, которые содержат только списки хеш-сумм, убедительная просьба с жалобами обращаться напрямую к пользователю. Файлы для обмена на трекере предоставлены пользователями сайта, и администрация не несёт ответственности за их содержание. Просьба не заливать файлы, защищенные авторскими правами, а также файлы нелегального содержания!

    [Профиль] [ЛС]
    Показать сообщения:    
    Ответить на тему

    Текущее время: Сегодня, в 12:04

    Часовой пояс: GMT + 2



    Вы не можете начинать темы
    Вы не можете отвечать на сообщения
    Вы не можете редактировать свои сообщения
    Вы не можете удалять свои сообщения
    Вы не можете голосовать в опросах
    Вы не можете прикреплять файлы к сообщениям
    Вы не можете скачивать файлы