BitTorrentTracker PerecTracker.org
BitTorrentTracker PerecTracker.org
    
Регистрация  ·  Вход
 
 · 
Забыли пароль?

  • Пока ещё жива (Александр Атанесян) [2013, Драма, криминал, SATRip]

    Ответить на тему
     
    Автор Сообщение

    Flirldrerve

    Создавать темы 16-Май-2016 03:15

           

    [Цитировать]

    Пока ещё жива-Жанр: Драма, криминал
    Год выпуска: 2013
    Продолжительность: 01:26:15
    Режиссёр: Александр Атанесян
    В ролях: Евгения Трофимова, Алексей Макаров, Константин Крюков, Равшана Куркова, Марат Башаров, Андрей Панин, Александр Асташёнок, Екатерина Волкова, Игорь Жижикин, Рамиль Сабитов, Лана Щербакова
    Описание: Жестоко отомстив за убийство мужа, Полина бежит в Одессу, где надеется скрыться от своих безжалостных врагов. Случайное знакомство с молодым и обаятельным Глебом начинает перерастать в нечто большее, чем просто симпатия. Но у мафии длинные руки, и в южный город прибывают авторитеты, чтобы «закрыть тему» — так Полина невольно становится поводом для «разборок» за передел сфер влияния. Чтобы остановить эту бесконечную криминальную сагу, Полина вынуждена из жертвы превратиться в охотника на «дона» и втягивает в эту опасную игру своих новых и, как выясняется, «непростых» знакомых…-Продолжение картины Атанесяна «Близкий враг», вышедшей на экраны в 2010 году.-Релиз от: -Качество видео: SATRip
    Формат видео: AVI-Видео: 720x304 (2.35:1), 25.000 fps, XviD 73, 1973 Kbps, 0.36 bit/pixel
    Аудио: 48.0 kHz, AC3 Dolby Digital, 2 ch, 192 Kbps--

    MediaInfo

    General
    Complete name : Downloads\Poka.echio.zyva.2014.SATRip.Files-x.avi
    Format : AVI
    Format/Info : Audio Video Interleave
    File size : 1.31 GiB
    Duration : 1h 26mn
    Overall bit rate : 2 175 Kbps
    Writing application : VirtualDubModRus 1.5.10.2 (build 2542/release)
    Writing library : VirtualDubMod build 2542/release
    Video #0
    ID : 0
    Format : MPEG-4 Visual
    Format profile : Advanced Simple@L5
    Format settings, BVOP : 1
    Format settings, QPel : No
    Format settings, GMC : No warppoints
    Format settings, Matrix : Custom
    Codec ID : XVID
    Codec ID/Hint : XviD
    Duration : 1h 26mn
    Bit rate : 1 973 Kbps
    Width : 720 pixels
    Height : 304 pixels
    Display aspect ratio : 2.35:1
    Frame rate : 25.000 fps
    Color space : YUV
    Chroma subsampling : 4:2:0
    Bit depth : 8 bits
    Scan type : Progressive
    Compression mode : Lossy
    Bits/(Pixel*Frame) : 0.361
    Stream size : 1.19 GiB (91%)
    Writing library : XviD 73
    Audio #1
    ID : 1
    Format : AC-3
    Format/Info : Audio Coding 3
    Mode extension : CM (complete main)
    Format settings, Endianness : Big
    Codec ID : 2000
    Duration : 1h 26mn
    Bit rate mode : Constant
    Bit rate : 192 Kbps
    Channel(s) : 2 channels
    Channel positions : Front: L R
    Sampling rate : 48.0 KHz
    Bit depth : 16 bits
    Compression mode : Lossy
    Stream size : 118 MiB (9%)
    Alignment : Split accross interleaves
    Interleave, duration : 40 ms (1.00 video frame)
    Interleave, preload duration : 500 ms

    Скриншот c названием фильма

    Скриншоты

    Скачать .torrent

    Скачать торрент-файл бесплатно и на максимальной скорости!

    Как скачивать? · Что такое торрент? · Рейтинг и ограничения

    !ВНИМАНИЕ!
    Сайт не распространяет и не хранит электронные версии произведений, а занимается лишь лишь предоставлением доступа к создаваемому пользователями каталогу ссылок на торрент-файлы, которые содержат только списки хеш-сумм, убедительная просьба с жалобами обращаться напрямую к пользователю. Файлы для обмена на трекере предоставлены пользователями сайта, и администрация не несёт ответственности за их содержание. Просьба не заливать файлы, защищенные авторскими правами, а также файлы нелегального содержания!


    _________________
    [Профиль] [ЛС]
    Показать сообщения:    
    Ответить на тему

    Текущее время: Сегодня, в 12:59

    Часовой пояс: GMT + 2



    Вы не можете начинать темы
    Вы не можете отвечать на сообщения
    Вы не можете редактировать свои сообщения
    Вы не можете удалять свои сообщения
    Вы не можете голосовать в опросах
    Вы не можете прикреплять файлы к сообщениям
    Вы не можете скачивать файлы