BitTorrentTracker PerecTracker.org
BitTorrentTracker PerecTracker.org
    
Регистрация  ·  Вход
 
 · 
Забыли пароль?

  • Бешеные / Enragés (Эрик Ханнецо / Éric Hannezo) [2015, Франция, Канада, боевик, триллер, драма, BDRip-AVC] MVO + Original (fre)

    Ответить на тему
     
    Автор Сообщение

    Light

    Создавать темы 15-Май-2016 23:10

           

    [Цитировать]

    Бешеные
    Enragés

    Страна: Франция, Канада
    Жанр: боевик, триллер, драма
    Год выпуска: 2015
    Продолжительность: 01:29:47
    Перевод: Профессиональный (многоголосый, закадровый) [Лицензия iTunes]
    Cубтитры: нет
    Оригинальная аудиодорожка: французский
    Режиссер: Эрик Ханнецо / Éric Hannezo
    В ролях: Ламбер Вильсон, Гийом Гуи, Виржини Ледуайен, Франк Гастамбид, Франсуа Арно, Лоран Люка, Mégane Lemée, Александр Гойетт, Пьер Лебо, Дэйв Лапоммерей, Габриель Лазюр, Жизель Трепанье
    Описание:
    После ограбления банка трое отчаянных преступников берут в заложники молодую женщину и отца с ребёнком. Это станет началом жестокой поездки, которую не все из них переживут.
    Автор рипа: Stalker oK
    Сэмпл
    Качество видео: BDRip-AVC [Enrages 2015 1080p FRA Blu-ray AVC DTS-HD MA 5.1-4FR]
    Формат видео: MKV
    Видео кодек: AVC
    Аудио кодек: AC3
    Видео: 2583 Кбит/сек, 1104*460 (2,40:1), в 25,000 кадров/сек, AVC
    Аудио #1: русский, 384 Кбит/сек, 48 КГц, 16 бит, 5.1, AC3
    Аудио #2: французский, 448 Кбит/сек, 48 КГц, 16 бит, 5.1, AC3
    Навигация по главам: есть

    MediaInfo

    Общее
    Уникальный идентификатор : 205784259699991513687390141836145176580 (0x9AD09B5631DA4EAEBC74EA2E9E6FB004)
    Полное имя : M:\1Rips\Enrages\Enragés.2015.BDRip-AVC.MVO.2.18Gb.stalkerok.new-team.mkv
    Формат : Matroska
    Версия формата : Version 4 / Version 2
    Размер файла : 2,14 Гбайт
    Продолжительность : 1 ч. 29 м.
    Общий поток : 3415 Кбит/сек
    Название фильма : Enragés (2015) (New-Team) (Rip by Stalker oK)
    Дата кодирования : UTC 2016-05-15 15:05:01
    Программа кодирования : mkvmerge v8.6.1 ('Flying') 64bit
    Библиотека кодирования : libebml v1.3.3 + libmatroska v1.4.4
    Видео
    Идентификатор : 1
    Формат : AVC
    Формат/Информация : Advanced Video Codec
    Профиль формата : High@L4.1
    Параметр CABAC формата : Да
    Параметр ReFrames формата : 14 кадров
    Идентификатор кодека : V_MPEG4/ISO/AVC
    Продолжительность : 1 ч. 29 м.
    Битрейт : 2583 Кбит/сек
    Ширина : 1104 пикселя
    Высота : 460 пикселей
    Соотношение сторон : 2,40:1
    Режим частоты кадров : Постоянный
    Частота кадров : 25,000 кадров/сек
    Цветовое пространство : YUV
    Субдискретизация насыщенности : 4:2:0
    Битовая глубина : 8 бит
    Тип развёртки : Прогрессивная
    Бит/(Пиксели*Кадры) : 0.203
    Размер потока : 1,62 Гбайт (76%)
    Заголовок : Enragés (2015) (New-Team) (Rip by Stalker oK)
    Библиотека кодирования : x264 core 148 r2665kMod a01e339
    Настройки программы : cabac=1 / ref=14 / deblock=1:-3:-2 / analyse=0x3:0x133 / me=umh / subme=11 / psy=1 / fade_compensate=0.00 / psy_rd=1.00:0.02 / mixed_ref=1 / me_range=32 / chroma_me=1 / trellis=2 / 8x8dct=1 / cqm=0 / deadzone=21,11 / fast_pskip=0 / chroma_qp_offset=-3 / threads=12 / lookahead_threads=3 / sliced_threads=0 / nr=0 / decimate=0 / interlaced=0 / bluray_compat=0 / constrained_intra=0 / fgo=0 / bframes=14 / b_pyramid=2 / b_adapt=2 / b_bias=0 / direct=3 / weightb=1 / open_gop=0 / weightp=2 / keyint=250 / keyint_min=25 / scenecut=40 / intra_refresh=0 / rc_lookahead=60 / rc=2pass / mbtree=0 / bitrate=2583 / ratetol=1.0 / qcomp=0.65 / qpmin=0 / qpmax=69 / qpstep=4 / cplxblur=20.0 / qblur=0.5 / vbv_maxrate=50000 / vbv_bufsize=62500 / nal_hrd=none / filler=0 / ip_ratio=1.40 / pb_ratio=1.30 / aq=1:0.80
    Default : Да
    Forced : Нет
    Аудио #1
    Идентификатор : 2
    Формат : AC-3
    Формат/Информация : Audio Coding 3
    Расширение режима : CM (complete main)
    Параметр Endianness формата : Big
    Идентификатор кодека : A_AC3
    Продолжительность : 1 ч. 29 м.
    Вид битрейта : Постоянный
    Битрейт : 384 Кбит/сек
    Каналы : 6 каналов
    Расположение каналов : Front: L C R, Side: L R, LFE
    Частота : 48,0 КГц
    Частота кадров : 31,250 кадров/сек (1536 spf)
    Метод сжатия : С потерями
    Размер потока : 247 Мбайт (11%)
    Язык : Russian
    Default : Да
    Forced : Нет
    Аудио #2
    Идентификатор : 3
    Формат : AC-3
    Формат/Информация : Audio Coding 3
    Расширение режима : CM (complete main)
    Параметр Endianness формата : Big
    Идентификатор кодека : A_AC3
    Продолжительность : 1 ч. 29 м.
    Вид битрейта : Постоянный
    Битрейт : 448 Кбит/сек
    Каналы : 6 каналов
    Расположение каналов : Front: L C R, Side: L R, LFE
    Частота : 48,0 КГц
    Частота кадров : 31,250 кадров/сек (1536 spf)
    Метод сжатия : С потерями
    Размер потока : 288 Мбайт (13%)
    Язык : French
    Default : Нет
    Forced : Нет
    Меню
    00:00:00.000 : en:Chapter 1
    00:09:13.600 : en:Chapter 2
    00:16:36.960 : en:Chapter 3
    00:24:42.440 : en:Chapter 4
    00:32:37.360 : en:Chapter 5
    00:40:00.720 : en:Chapter 6
    00:47:57.320 : en:Chapter 7
    00:56:53.960 : en:Chapter 8
    01:03:44.760 : en:Chapter 9
    01:12:55.760 : en:Chapter 10
    01:17:34.160 : en:Chapter 11
    01:26:31.480 : en:Chapter 12

    Скриншоты

    Скачать .torrent

    Скачать торрент-файл бесплатно и на максимальной скорости!

    Как скачивать? · Что такое торрент? · Рейтинг и ограничения

    !ВНИМАНИЕ!
    Сайт не распространяет и не хранит электронные версии произведений, а занимается лишь лишь предоставлением доступа к создаваемому пользователями каталогу ссылок на торрент-файлы, которые содержат только списки хеш-сумм, убедительная просьба с жалобами обращаться напрямую к пользователю. Файлы для обмена на трекере предоставлены пользователями сайта, и администрация не несёт ответственности за их содержание. Просьба не заливать файлы, защищенные авторскими правами, а также файлы нелегального содержания!


    _________________
    [Профиль] [ЛС]
    Показать сообщения:    
    Ответить на тему

    Текущее время: Сегодня, в 16:37

    Часовой пояс: GMT + 2



    Вы не можете начинать темы
    Вы не можете отвечать на сообщения
    Вы не можете редактировать свои сообщения
    Вы не можете удалять свои сообщения
    Вы не можете голосовать в опросах
    Вы не можете прикреплять файлы к сообщениям
    Вы не можете скачивать файлы