Register  ·  Log in
Forgot password?

  • Король обезьян / Xi you ji zhi da sheng gui lai (Тиан Сяо Пенг) [2015, Китай, мультфильм, приключения, WEB-DLRip] Dub

    Reply to topic
    Author Message


    Post 16-May-2016 00:10



    ________________________________Король обезьян / Xi you ji zhi da sheng gui lai-Страна: Китай
    Жанр: мультфильм, приключения
    Продолжительность: 01:26:51
    Год выпуска: 2015
    Перевод: Профессиональный (дублированный)
    Субтитры: отсутствуют
    Режиссёр: Тиан Сяо Пенг
    Роли озвучивали: Джеки Чан, Никки Брайар, Федор Чин, Ника Футтерман, Джеймс Хонг, Дэвид С. Юнг, Джон Олсон
    Всемогущий Король Обезьян однажды прогневил богов и был заключен ими в ледяную бездну среди Мраморных Гор. Спустя 500 лет маленький мальчик случайно снимает заклятие и освобождает героя. Теперь Короля ждет новое испытание: ему предстоит сразиться с Кровожадным Драконом. Сможет ли великий герой, владевший магией и кунг-фу, спасти людей и победить Могучего Дракона?
    Качество: WEB-DLRip
    Формат: AVI
    Видео: 720x304 (2.35:1), MPEG-4 Visual (XVID), 2203 Kbps, 0.419 Bits/(Pixel*Frame)
    Аудио: AC-3, 48.0 KHz, 2ch, 192 Kbps


    GeneralComplete name : D:\загрузка\Korol_Obezjan_Vozvrashhenie_Geroja.2015_WEB-DLRip.1.46Gb_by_Twi7ter.aviFormat : AVIFormat/Info : Audio Video InterleaveFile size : 1.46 GiBDuration : 1h 26mnOverall bit rate : 2 404 KbpsMovie name : Korol.Obezjan.Vozvrashhenie.Geroja.2015.D.WEB-DLRip.1.46Gb_by_Twi7terDirector : Twi7terGenre : Adventure/FantasyWriting application : VirtualDubMod (build 2550/release)Original source form/Name : Cartoon
    VideoID : 0Format : MPEG-4 VisualFormat profile : Advanced Simple@L5Format settings, BVOP : 2Format settings, QPel : NoFormat settings, GMC : No warppointsFormat settings, Matrix : CustomCodec ID : XVIDCodec ID/Hint : XviDDuration : 1h 26mnBit rate : 2 203 KbpsWidth : 720 pixelsHeight : 304 pixelsDisplay aspect ratio : 2.35:1Frame rate : 24.000 fpsColor space : YUVChroma subsampling : 4:2:0Bit depth : 8 bitsScan type : ProgressiveCompression mode : LossyBits/(Pixel*Frame) : 0.419Stream size : 1.34 GiB (92%)Writing library : XviD 73
    AudioID : 1Format : AC-3Format/Info : Audio Coding 3Mode extension : CM (complete main)Codec ID : 2000Duration : 1h 26mnBit rate mode : ConstantBit rate : 192 KbpsChannel(s) : 2 channelsChannel positions : Front: L RSampling rate : 48.0 KHzBit depth : 16 bitsCompression mode : LossyStream size : 119 MiB (8%)Alignment : Split accross interleavesInterleave, duration : 42 ms (1.00 video frame)Interleave, preload duration : 500 ms


    Download .torrent

    Download free and at maximum speed!

    How to Download? · What is a torrent? · Ratings and Limitations

    The site does not extend and does not store electronic(digital) versions of products, and only gives access to a reference catalogue created by users on torrent-files which contain only lists of the hash-sums, the earnest entreaty, with complaints(abuse) to access directly to the user. Files for an exchange on tracker are given by users of a site, and the administration does not bear the responsibility for their maintenance. The request to not fill in the files protected by copyrights, and also files of the illegal maintenance!

    [Profile] [PM]
    Display posts from previous:    
    Reply to topic

    The time now is: Today 23:55

    All times are GMT + 3 Hours

    You cannot post new topics in this forum
    You cannot reply to topics in this forum
    You cannot edit your posts in this forum
    You cannot delete your posts in this forum
    You cannot vote in polls in this forum
    You cannot attach files in this forum
    You cannot download files in this forum