BitTorrentTracker PerecTracker.org
BitTorrentTracker PerecTracker.org
    
Регистрация  ·  Вход
 
 · 
Забыли пароль?

  • Король обезьян / Xi you ji zhi da sheng gui lai (Тиан Сяо Пенг) [2015, Китай, мультфильм, приключения, WEB-DLRip] Dub

    Ответить на тему
     
    Автор Сообщение

    Flirldrerve

    Создавать темы 15-Май-2016 23:10

           

    [Цитировать]

    ________________________________Король обезьян / Xi you ji zhi da sheng gui lai-Страна: Китай
    Жанр: мультфильм, приключения
    Продолжительность: 01:26:51
    Год выпуска: 2015
    Перевод: Профессиональный (дублированный)
    Субтитры: отсутствуют
    Режиссёр: Тиан Сяо Пенг
    Роли озвучивали: Джеки Чан, Никки Брайар, Федор Чин, Ника Футтерман, Джеймс Хонг, Дэвид С. Юнг, Джон Олсон
    Описание:
    Всемогущий Король Обезьян однажды прогневил богов и был заключен ими в ледяную бездну среди Мраморных Гор. Спустя 500 лет маленький мальчик случайно снимает заклятие и освобождает героя. Теперь Короля ждет новое испытание: ему предстоит сразиться с Кровожадным Драконом. Сможет ли великий герой, владевший магией и кунг-фу, спасти людей и победить Могучего Дракона?
    Качество: WEB-DLRip
    Формат: AVI
    Видео: 720x304 (2.35:1), MPEG-4 Visual (XVID), 2203 Kbps, 0.419 Bits/(Pixel*Frame)
    Аудио: AC-3, 48.0 KHz, 2ch, 192 Kbps
    возраст:6+
    Трейлер

    MediaInfo

    GeneralComplete name : D:\загрузка\Korol_Obezjan_Vozvrashhenie_Geroja.2015_WEB-DLRip.1.46Gb_by_Twi7ter.aviFormat : AVIFormat/Info : Audio Video InterleaveFile size : 1.46 GiBDuration : 1h 26mnOverall bit rate : 2 404 KbpsMovie name : Korol.Obezjan.Vozvrashhenie.Geroja.2015.D.WEB-DLRip.1.46Gb_by_Twi7terDirector : Twi7terGenre : Adventure/FantasyWriting application : VirtualDubMod 1.5.10.3 (build 2550/release)Original source form/Name : Cartoon
    VideoID : 0Format : MPEG-4 VisualFormat profile : Advanced Simple@L5Format settings, BVOP : 2Format settings, QPel : NoFormat settings, GMC : No warppointsFormat settings, Matrix : CustomCodec ID : XVIDCodec ID/Hint : XviDDuration : 1h 26mnBit rate : 2 203 KbpsWidth : 720 pixelsHeight : 304 pixelsDisplay aspect ratio : 2.35:1Frame rate : 24.000 fpsColor space : YUVChroma subsampling : 4:2:0Bit depth : 8 bitsScan type : ProgressiveCompression mode : LossyBits/(Pixel*Frame) : 0.419Stream size : 1.34 GiB (92%)Writing library : XviD 73
    AudioID : 1Format : AC-3Format/Info : Audio Coding 3Mode extension : CM (complete main)Codec ID : 2000Duration : 1h 26mnBit rate mode : ConstantBit rate : 192 KbpsChannel(s) : 2 channelsChannel positions : Front: L RSampling rate : 48.0 KHzBit depth : 16 bitsCompression mode : LossyStream size : 119 MiB (8%)Alignment : Split accross interleavesInterleave, duration : 42 ms (1.00 video frame)Interleave, preload duration : 500 ms

    Скриншоты

    Скачать .torrent

    Скачать торрент-файл бесплатно и на максимальной скорости!

    Как скачивать? · Что такое торрент? · Рейтинг и ограничения

    !ВНИМАНИЕ!
    Сайт не распространяет и не хранит электронные версии произведений, а занимается лишь лишь предоставлением доступа к создаваемому пользователями каталогу ссылок на торрент-файлы, которые содержат только списки хеш-сумм, убедительная просьба с жалобами обращаться напрямую к пользователю. Файлы для обмена на трекере предоставлены пользователями сайта, и администрация не несёт ответственности за их содержание. Просьба не заливать файлы, защищенные авторскими правами, а также файлы нелегального содержания!


    _________________
    [Профиль] [ЛС]
    Показать сообщения:    
    Ответить на тему

    Текущее время: Сегодня, в 08:01

    Часовой пояс: GMT + 2



    Вы не можете начинать темы
    Вы не можете отвечать на сообщения
    Вы не можете редактировать свои сообщения
    Вы не можете удалять свои сообщения
    Вы не можете голосовать в опросах
    Вы не можете прикреплять файлы к сообщениям
    Вы не можете скачивать файлы