BitTorrentTracker PerecTracker.org
BitTorrentTracker PerecTracker.org
    
Регистрация  ·  Вход
 
 · 
Забыли пароль?

  • Небраска / Nebraska (Александр Пэйн / Alexander Payne) [2013, США, драма, приключения, HDRip] VO (|Doctor Joker|)

    Ответить на тему
     
    Автор Сообщение

    Columb

    Создавать темы 16-Фев-2014 11:16

           

    [Цитировать]

    --Небраска / Nebraska--Страна: США
    Жанр: драма, приключения
    Год выпуска: 2013
    Продолжительность: 01:54:43-Перевод: Одноголосый закадровый |Doctor Joker|
    Cубтитры: нет
    Оригинальная аудиодорожка: нет-Режиссер: Александр Пэйн / Alexander Payne-В ролях: Брюс Дерн, Уилл Форте, Джун Скуиб, Боб Оденкёрк, Стейси Кич, Рэнс Ховард, Мисси Доти, Кевин Кункель, Девин Рэтрей, Мелинда Симонсен
    Описание: Рассказ пойдет про отца-алкоголика, который выиграл миллион долларов. Он не хочет отправляться сам в долгий путь из Монтаны в Небраску, чтобы забрать свой выигрыш. Его сын, которому далеко за двадцать, не верит, что билет выигрышный, но все равно решает отправиться вместе с отцом, чтобы уберечь его от опасностей и всяких неприятностей, а также сблизиться за время путешествия.- -Качество видео: HDRip
    Формат видео: AVI
    Видео: XviD, NTSC 23.976, 720х304, 1254 кбит/с
    Аудио: AC-3, 48.0 KHz, 3 ch, 448 Kbps-

    Награды

    Оскар, 2014 год
    Номинации (6):
    Лучший фильм
    Лучшая мужская роль (Брюс Дерн)
    Лучшая женская роль второго плана (Джун Скуиб)
    Лучший режиссер (Александр Пэйн)
    Лучший сценарий
    Лучшая работа оператора
    Золотой глобус, 2014 год
    Номинации (5):
    Лучший фильм (комедия или мюзикл)
    Лучшая мужская роль (комедия или мюзикл) (Брюс Дерн)
    Лучшая женская роль второго плана (Джун Скуиб)
    Лучший режиссер (Александр Пэйн)
    Лучший сценарий
    Британская академия, 2014 год
    Номинации (3):
    Лучшая мужская роль (Брюс Дерн)
    Лучший оригинальный сценарий
    Лучшая работа оператора (Фидон Папамайкл)
    Премия Гильдии актеров, 2014 год
    Номинации (2):
    Лучшая мужская роль (Брюс Дерн)
    Лучшая женская роль второго плана (Джун Скуиб)
    Каннский кинофестиваль, 2013 год
    Победитель (1):
    Лучшая мужская роль (Брюс Дерн)
    Номинации (1):
    Золотая пальмовая ветвь

    MediaInfo

    General
    Complete name : F:\BD torrent\DVDRIPS\Nebraska.2013.HDRip.Rus.avi
    Format : AVI
    Format/Info : Audio Video Interleave
    File size : 1.37 GiB
    Duration : 1h 54mn
    Overall bit rate : 1 711 Kbps
    Writing application : VirtualDubMod 1.5.10.2 (build 2540/release)
    Writing library : VirtualDubMod build 2540/release
    Video
    ID : 0
    Format : MPEG-4 Visual
    Format profile : Advanced Simple@L5
    Format settings, BVOP : 2
    Format settings, QPel : No
    Format settings, GMC : No warppoints
    Format settings, Matrix : Custom
    Codec ID : XVID
    Codec ID/Hint : XviD
    Duration : 1h 54mn
    Bit rate : 1 254 Kbps
    Width : 720 pixels
    Height : 304 pixels
    Display aspect ratio : 2.35:1
    Frame rate : 23.976 fps
    Color space : YUV
    Chroma subsampling : 4:2:0
    Bit depth : 8 bits
    Scan type : Progressive
    Compression mode : Lossy
    Bits/(Pixel*Frame) : 0.239
    Stream size : 1.00 GiB (73%)
    Writing library : XviD 1.2.1 (UTC 2008-12-04)
    Audio
    ID : 1
    Format : AC-3
    Format/Info : Audio Coding 3
    Mode extension : CM (complete main)
    Format settings, Endianness : Big
    Codec ID : 2000
    Duration : 1h 54mn
    Bit rate mode : Constant
    Bit rate : 448 Kbps
    Channel(s) : 3 channels
    Channel positions : Front: L C R
    Sampling rate : 48.0 KHz
    Bit depth : 16 bits
    Compression mode : Lossy
    Stream size : 368 MiB (26%)
    Alignment : Split accross interleaves
    Interleave, duration : 42 ms (1.00 video frame)
    Interleave, preload duration : 500 ms

    Скриншот c названием фильма

    Скриншоты

    Скачать .torrent

    Скачать торрент-файл бесплатно и на максимальной скорости!

    Как скачивать? · Что такое торрент? · Рейтинг и ограничения

    !ВНИМАНИЕ!
    Сайт не распространяет и не хранит электронные версии произведений, а занимается лишь лишь предоставлением доступа к создаваемому пользователями каталогу ссылок на торрент-файлы, которые содержат только списки хеш-сумм, убедительная просьба с жалобами обращаться напрямую к пользователю. Файлы для обмена на трекере предоставлены пользователями сайта, и администрация не несёт ответственности за их содержание. Просьба не заливать файлы, защищенные авторскими правами, а также файлы нелегального содержания!

    [Профиль] [ЛС]
    Показать сообщения:    
    Ответить на тему

    Текущее время: Сегодня, в 02:35

    Часовой пояс: GMT + 2



    Вы не можете начинать темы
    Вы не можете отвечать на сообщения
    Вы не можете редактировать свои сообщения
    Вы не можете удалять свои сообщения
    Вы не можете голосовать в опросах
    Вы не можете прикреплять файлы к сообщениям
    Вы не можете скачивать файлы