BitTorrentTracker PerecTracker.org
BitTorrentTracker PerecTracker.org
    
Регистрация  ·  Вход
 
 · 
Забыли пароль?

  • Друзья / Les deux amis (Луи Гаррель / Louis Garrel) [2015, Франция, Мелодрама, комедия, WEB-DLRip] MVO (iTunes)

    Ответить на тему
     
    Автор Сообщение

    Light

    Создавать темы 15-Май-2016 19:05

           

    [Цитировать]

    Друзья / Les deux amis
    Страна: Франция
    Жанр: Мелодрама, комедия
    Год выпуска: 2015
    Продолжительность: 01:38:08
    Перевод: Профессиональный (многоголосый закадровый) iTunes
    Cубтитры: нет
    Режиссер: Луи Гаррель / Louis Garrel
    В ролях: Голшифте Фарахани, Венсан Макен, Луи Гаррель, Мао Адам, Пьер Мэйллет, Кристель Делоз, Ризлен Эль Коэн, Йен Трам Ле Тхи, Хитоми Рьоке Дюран, Улисс Королитски
    Описание: Двое друзей — это заносчивый красавчик Абель и начинающий актер Клеман. Дружба дает трещину, когда оба влюбляются в Мону — симпатичную продавщицу в кофейном киоске на Северном Вокзале Парижа. Смешливая, но неприступная и загадочная, она не поддается на уловки романтиков — и на то есть причина. Любовный треугольник, то нелепый, то довольно опасный, складывается сам собой. Трое таких разных людей отправляются на ночную прогулку, которая раскроет тайну Моны и навсегда изменит друзей.
    Сэмпл: http://sendfile.su/1233918
    Качество видео: WEB-DLRip (рип с руторга).
    Формат видео: AVI
    Видео: Хvid; 720x384 (4:2:0); 25.000 fps; 1729 kbps avg
    Аудио: АС-3 ; 6 Сh, 48.0 KHz, 384 кб/с

    MediaInfo

    Format : AVI
    Format/Info : Audio Video Interleave
    File size : 1.45 GiB
    Duration : 1h 38mn
    Overall bit rate : 2 123 Kbps
    Writing application : VirtualDubMod 1.5.10.2 (build 2540/release)
    Writing library : VirtualDubMod build 2540/release
    Video
    ID : 0
    Format : MPEG-4 Visual
    Format profile : Advanced Simple@L5
    Format settings, BVOP : 2
    Format settings, QPel : No
    Format settings, GMC : No warppoints
    Format settings, Matrix : Default (MPEG)
    Codec ID : XVID
    Codec ID/Hint : XviD
    Duration : 1h 38mn
    Bit rate : 1 729 Kbps
    Width : 720 pixels
    Height : 384 pixels
    Display aspect ratio : 1.85:1
    Frame rate : 25.000 fps
    Color space : YUV
    Chroma subsampling : 4:2:0
    Bit depth : 8 bits
    Scan type : Progressive
    Compression mode : Lossy
    Bits/(Pixel*Frame) : 0.250
    Stream size : 1.19 GiB (81%)
    Writing library : XviD 1.2.1 (UTC 2008-12-04)
    Audio
    ID : 1
    Format : AC-3
    Format/Info : Audio Coding 3
    Mode extension : CM (complete main)
    Format settings, Endianness : Big
    Codec ID : 2000
    Duration : 1h 38mn
    Bit rate mode : Constant
    Bit rate : 384 Kbps
    Channel(s) : 6 channels
    Channel positions : Front: L C R, Side: L R, LFE
    Sampling rate : 48.0 KHz
    Frame rate : 31.250 fps (1536 spf)
    Compression mode : Lossy
    Stream size : 270 MiB (18%)
    Alignment : Split accross interleaves
    Interleave, duration : 40 ms (1.00 video frame)
    Interleave, preload duration : 500 ms

    Скриншот c названием фильма

    Скриншоты






    Скачать .torrent

    Скачать торрент-файл бесплатно и на максимальной скорости!

    Как скачивать? · Что такое торрент? · Рейтинг и ограничения

    !ВНИМАНИЕ!
    Сайт не распространяет и не хранит электронные версии произведений, а занимается лишь лишь предоставлением доступа к создаваемому пользователями каталогу ссылок на торрент-файлы, которые содержат только списки хеш-сумм, убедительная просьба с жалобами обращаться напрямую к пользователю. Файлы для обмена на трекере предоставлены пользователями сайта, и администрация не несёт ответственности за их содержание. Просьба не заливать файлы, защищенные авторскими правами, а также файлы нелегального содержания!


    _________________
    [Профиль] [ЛС]
    Показать сообщения:    
    Ответить на тему

    Текущее время: Сегодня, в 18:20

    Часовой пояс: GMT + 2



    Вы не можете начинать темы
    Вы не можете отвечать на сообщения
    Вы не можете редактировать свои сообщения
    Вы не можете удалять свои сообщения
    Вы не можете голосовать в опросах
    Вы не можете прикреплять файлы к сообщениям
    Вы не можете скачивать файлы