BitTorrentTracker PerecTracker.org
BitTorrentTracker PerecTracker.org
    
Регистрация  ·  Вход
 
 · 
Забыли пароль?

  • Прогулка с любовью и смертью / A Walk with Love and Death (Джон Хьюстон / John Huston) [1969, США, исторический, драма, DVDRip] + Sub Rus + Original Eng

    Ответить на тему
     
    Автор Сообщение

    Columb

    Создавать темы 16-Фев-2014 11:14

           

    [Цитировать]

    Прогулка с любовью и смертью / A Walk with Love and Death
    Страна: США
    Жанр: исторический, драма
    Год выпуска: 1969
    Продолжительность: 01:26:23
    Перевод: Субтитры
    Cубтитры: русские - petpav, испанские, французские
    Оригинальная аудиодорожка: английский
    Режиссер: Джон Хьюстон / John Huston
    В ролях: Аси Даян, Анжелика Хьюстон, Энтони Хиггинс, Джон Холлэм, Роберт Лэнг, Гай Деги, Майкл Гоф
    Описание: Романтическая история любви студента Герона и дворянки Клодии в жестокое время Столетней войны и восстания французских крестьян – Жакерии - в 1358 году.
    Доп. информация: Фильм снят по одноимённому роману Ханса Конингсбергера.
    Рип и субтитры найдены в сети. Перевод и правка субтитров - petpav
    Сэмпл: http://sendfile.su/941003
    Качество видео: DVDRip
    Формат видео: AVI
    Видео: XVID, 688x368, 799 Mb, 25.000 fps, 1156 Kbps
    Аудио: MP3, 48.0 KHz, 128 Kbps, 2 channels
    Формат субтитров: softsub (SRT)

    Образец субтитров

    25
    00:05:44,840 --> 00:05:45,670
    Кто ты?
    26
    00:05:45,880 --> 00:05:48,440
    Студент. Я хотел бы получить
    охранную грамоту.
    27
    00:05:48,640 --> 00:05:49,436
    Как ты пришел?
    28
    00:05:49,640 --> 00:05:50,834
    Пешком.
    29
    00:05:51,800 --> 00:05:54,598
    50 франков с господина.
    30
    00:05:55,120 --> 00:05:57,998
    Я не господин.
    У меня не больше 20.
    31
    00:05:58,360 --> 00:06:00,032
    Хорошо. Давай.
    32
    00:06:00,600 --> 00:06:02,477
    Мне предстоит долгий путь.
    33
    00:06:03,280 --> 00:06:04,918
    Ты так думаешь?
    34
    00:06:18,320 --> 00:06:21,676
    Капитан, мы поймали этого человека.
    Это было у него.
    35
    00:06:27,000 --> 00:06:29,275
    Там, где есть одна, есть и другие.
    36
    00:06:30,160 --> 00:06:32,151
    Говори, где они спрятаны.
    37
    00:06:32,360 --> 00:06:34,794
    Я дал ему час назад, за вино.
    38
    00:06:35,000 --> 00:06:38,595
    Так он продает вино?
    Проверьте, там должны быть еще деньги.
    39
    00:06:39,000 --> 00:06:41,468
    Нет. У меня ничего нет.
    40
    00:06:41,680 --> 00:06:43,557
    Очень хорошо. Отрубите ему голову.

    MediaInfo

    Общее
    Полное имя : F: A Walk with Love and Death.1969.rus.avi
    Формат : AVI
    Формат/Информация : Audio Video Interleave
    Размер файла : 799 Мбайт
    Продолжительность : 1 ч. 26 м.
    Общий поток : 1294 Кбит/сек
    Программа кодирования : FairUse Wizard - http://fairusewizard.com
    Библиотека кодирования : The best and REALLY easy backup tool
    Видео
    Идентификатор : 0
    Формат : MPEG-4 Visual
    Профиль формата : Advanced Simple@L5
    Параметр BVOP формата : 1
    Параметр QPel формата : Нет
    Параметр GMC формата : Без точки перехода
    Параметр матрицы формата : Default (MPEG)
    Режим смешивания : Сжатый битовый поток
    Идентификатор кодека : XVID
    Идентификатор кодека/Подсказка : XviD
    Продолжительность : 1 ч. 26 м.
    Битрейт : 1156 Кбит/сек
    Ширина : 688 пикселей
    Высота : 368 пикселей
    Соотношение сторон : 1,85:1
    Частота кадров : 25,000 кадров/сек
    Цветовое пространство : YUV
    Субдискретизация насыщенности : 4:2:0
    Битовая глубина : 8 бит
    Тип развёртки : Прогрессивная
    Метод сжатия : С потерями
    Бит/(Пиксели*Кадры) : 0.183
    Размер потока : 714 Мбайт (89%)
    Библиотека кодирования : XviD 1.2.0.dev47 (UTC 2006-11-01)
    Аудио
    Идентификатор : 1
    Формат : MPEG Audio
    Версия формата : Version 1
    Профиль формата : Layer 3
    Режим : Joint stereo
    Расширение режима : MS Stereo
    Идентификатор кодека : 55
    Идентификатор кодека/Подсказка : MP3
    Продолжительность : 1 ч. 26 м.
    Вид битрейта : Постоянный
    Битрейт : 128 Кбит/сек
    Каналы : 2 канала
    Частота : 48,0 КГц
    Метод сжатия : С потерями
    Размер потока : 79,1 Мбайт (10%)
    Выравнивание : Соединение по промежуткам
    Продолжительность промежутка : 40 мс. (1,00 видеокадр)
    Время предзагрузки промежутка : 504 мс.
    Библиотека кодирования : LAME3.97
    Настройки программы : -m j -V 4 -q 2 -lowpass 17 -b 128

    Скриншот c названием фильма

    Скриншоты

    Скачать .torrent

    Скачать торрент-файл бесплатно и на максимальной скорости!

    Как скачивать? · Что такое торрент? · Рейтинг и ограничения

    !ВНИМАНИЕ!
    Сайт не распространяет и не хранит электронные версии произведений, а занимается лишь лишь предоставлением доступа к создаваемому пользователями каталогу ссылок на торрент-файлы, которые содержат только списки хеш-сумм, убедительная просьба с жалобами обращаться напрямую к пользователю. Файлы для обмена на трекере предоставлены пользователями сайта, и администрация не несёт ответственности за их содержание. Просьба не заливать файлы, защищенные авторскими правами, а также файлы нелегального содержания!

    [Профиль] [ЛС]
    Показать сообщения:    
    Ответить на тему

    Текущее время: Сегодня, в 00:22

    Часовой пояс: GMT + 2



    Вы не можете начинать темы
    Вы не можете отвечать на сообщения
    Вы не можете редактировать свои сообщения
    Вы не можете удалять свои сообщения
    Вы не можете голосовать в опросах
    Вы не можете прикреплять файлы к сообщениям
    Вы не можете скачивать файлы