BitTorrentTracker PerecTracker.org
BitTorrentTracker PerecTracker.org
    
Регистрация  ·  Вход
 
 · 
Забыли пароль?

  • Подтверждение / The Confirmation (Боб Нельсон / Bob Nelson) [2016, Канада, Комедия, WEB-DLRip] VO + Original (Eng) + Subs (Rus, Eng)

    Ответить на тему
     
    Автор Сообщение

    rechyn

    Создавать темы 15-Май-2016 15:00

           

    [Цитировать]

    Подтверждение / The Confirmation-Год выхода: 2016
    Выпущено: Канада / Lighthouse Pictures
    Жанр: комедия
    Продолжительность: 01:41:19
    Перевод: Одноголосый закадровый Павел Морозов aka PashaUp
    Cубтитры: Русские (kidkong), Английские (внешние .srt*)
    Оригинальная аудиодорожка: Английская-Режиссер:
    Боб Нельсон / Bob Nelson-В ролях:
    Клайв Оуэн, Джейден Либерер, Мария Белло, Мэттью Модайн, Спенсер Древер, Пэттон Освальт, Стивен Тоболовски, Майкл Эклунд, Райан Роббинс, Тим Блейк Нельсон, Роберт Форстер, Куинн Дюбуа, Лувия Петерсен, Гари Чок, Патрик Гилмор, Кэтрин Лок Хэггквист, Дженнифер Коппинг, Элиза Фариа, Джон Стюарт, Гленн Бек, Дин Рэй, Квеси Амеяу, Дэйв Коллетт, Скотт Пате, Том Пикетт-О фильме:
    Восьмилетний Энтони вынужден провести выходные со своим алкоголиком-отцом, с которым его мать находится в разводе. Для них обоих — это нелегкое испытание, сопровождающееся чередой происшествий. Преодолевая трудности вместе, они осознают, сколь крепка связь между ними.-Релиз групп
    | | IMDB | КиноПоиск | Сэмпл |-Качество: WEB-DLRip [The.Confirmation.2016.720p.WEB-DL.DD5.1.H264-FGT]
    Формат: AVI
    Видео: 720x400 (1.80:1), 23.976 fps, XviD build 67 ~1673 kbps avg, 0.24 bit/pixel
    Аудио #1: 48 kHz, AC3 Dolby Digital, 2/0 (L,R) ch, ~192 kbps avg (RUS)
    Аудио #2: 48 kHz, AC3 Dolby Digital, 2/0 (L,R) ch, ~192 kbps avg (ENG)--

    Скриншоты

    -

    MediaInfo

    General
    Complete name                            : D:\Podtverzhdenie_2016_WEB-DLRip_VO_by_Dalemake.avi
    Format                                   : AVI
    Format/Info                              : Audio Video Interleave
    File size                                : 1.47 GiB
    Duration                                 : 1h 41mn
    Overall bit rate                         : 2 073 Kbps
    Writing application                      : VirtualDubMod 1.5.10.3 | www.virtualdub-fr.org || (build 2550/release)
    Writing library                          : VirtualDubMod build 2550/release
    Video
    ID                                       : 0
    Format                                   : MPEG-4 Visual
    Format profile                           : Advanced Simple@L5
    Format settings, BVOP                    : 1
    Format settings, QPel                    : No
    Format settings, GMC                     : No warppoints
    Format settings, Matrix                  : Custom
    Codec ID                                 : XVID
    Codec ID/Hint                            : XviD
    Duration                                 : 1h 41mn
    Bit rate                                 : 1 674 Kbps
    Width                                    : 720 pixels
    Height                                   : 400 pixels
    Display aspect ratio                     : 16:9
    Frame rate                               : 23.976 (23976/1000) fps
    Color space                              : YUV
    Chroma subsampling                       : 4:2:0
    Bit depth                                : 8 bits
    Scan type                                : Progressive
    Compression mode                         : Lossy
    Bits/(Pixel*Frame)                       : 0.242
    Stream size                              : 1.19 GiB (81%)
    Writing library                          : XviD 67
    Audio #1
    ID                                       : 1
    Format                                   : AC-3
    Format/Info                              : Audio Coding 3
    Mode extension                           : CM (complete main)
    Format settings, Endianness              : Big
    Codec ID                                 : 2000
    Duration                                 : 1h 41mn
    Bit rate mode                            : Constant
    Bit rate                                 : 192 Kbps
    Channel(s)                               : 2 channels
    Channel positions                        : Front: L R
    Sampling rate                            : 48.0 KHz
    Frame rate                               : 31.250 fps (1536 spf)
    Compression mode                         : Lossy
    Stream size                              : 139 MiB (9%)
    Alignment                                : Split accross interleaves
    Interleave, duration                     : 42 ms (1.00 video frame)
    Interleave, preload duration             : 500 ms
    Audio #2
    ID                                       : 2
    Format                                   : AC-3
    Format/Info                              : Audio Coding 3
    Mode extension                           : CM (complete main)
    Format settings, Endianness              : Big
    Codec ID                                 : 2000
    Duration                                 : 1h 41mn
    Bit rate mode                            : Constant
    Bit rate                                 : 192 Kbps
    Channel(s)                               : 2 channels
    Channel positions                        : Front: L R
    Sampling rate                            : 48.0 KHz
    Frame rate                               : 31.250 fps (1536 spf)
    Compression mode                         : Lossy
    Stream size                              : 139 MiB (9%)
    Alignment                                : Split accross interleaves
    Interleave, duration                     : 42 ms (1.00 video frame)
    Interleave, preload duration             : 500 ms
    -
    Скачать .torrent

    Скачать торрент-файл бесплатно и на максимальной скорости!

    Как скачивать? · Что такое торрент? · Рейтинг и ограничения

    !ВНИМАНИЕ!
    Сайт не распространяет и не хранит электронные версии произведений, а занимается лишь лишь предоставлением доступа к создаваемому пользователями каталогу ссылок на торрент-файлы, которые содержат только списки хеш-сумм, убедительная просьба с жалобами обращаться напрямую к пользователю. Файлы для обмена на трекере предоставлены пользователями сайта, и администрация не несёт ответственности за их содержание. Просьба не заливать файлы, защищенные авторскими правами, а также файлы нелегального содержания!


    _________________
    [Профиль] [ЛС]
    Показать сообщения:    
    Ответить на тему

    Текущее время: Сегодня, в 16:34

    Часовой пояс: GMT + 2



    Вы не можете начинать темы
    Вы не можете отвечать на сообщения
    Вы не можете редактировать свои сообщения
    Вы не можете удалять свои сообщения
    Вы не можете голосовать в опросах
    Вы не можете прикреплять файлы к сообщениям
    Вы не можете скачивать файлы