BitTorrentTracker PerecTracker.org
BitTorrentTracker PerecTracker.org
    
Регистрация  ·  Вход
 
 · 
Забыли пароль?

  • И грянул шторм / The Finest Hours (Крэйг Гиллеспи / Craig Gillespie) [2016, США, Боевик, триллер, драма, история, BDRip-AVC] Dub (Line) + Original (Eng) + Subs (Rus, Eng)

    Ответить на тему
     
    Автор Сообщение

    rechyn

    Создавать темы 15-Май-2016 15:00

           

    [Цитировать]

    И грянул шторм / The Finest Hours-Год выхода: 2016
    Выпущено: США / Walt Disney Pictures
    Жанр: боевик, триллер, драма, история
    Продолжительность: 01:57:18
    Перевод: Профессиональный (полное дублирование)
    Субтитры: Русские, Английские (.srt*)
    Оригинальная аудиодорожка: Английская
    Навигация по главам: Есть (22 главы)-Режиссер:
    Крэйг Гиллеспи / Craig Gillespie-В ролях:
    Крис Пайн, Кейси Аффлек, Бен Фостер, Эрик Бана, Холлидей Грейнджер, Джон Ортис, Кайл Галлнер, Джон Магаро, Грэм МакТавиш, Майкл Рэймонд-Джеймс, Бо Напп, Джош Стюарт, Абрахам Бенруби, Кейнан Лонсдейл, Рэйчел Броснахэн, Бенжамин Колдык, Мэттью Мехер, Джесси Габбар, Александр Кук, Дэнни Коннелли-О фильме:
    Сюжет фильма основан на реальных событиях, произошедших в 1952 году, когда сотрудники береговой охраны в самый разгар шторма, используя деревянные моторные лодки, пытались спасти экипаж двух нефтяных танкеров.-| IMDB | КиноПоиск | Сэмпл |-Качество: BDRip-AVC [The.Finest.Hours.2016.1080p.BluRay.AVC.DTS-HD.MA.7.1-RARBG]
    Формат: AVI
    Видео: 960x400 (2.40:1), 23.976 fps, x264 ~1390 kbps avg, 0.151 bit/pixel
    Аудио #1: 48 kHz, AC3 Dolby Digital, 2/0 (L,R) ch, ~192.00 kbps avg (RUS) - Line
    Аудио #2: 48 kHz, AC3 Dolby Digital, 2/0 (L,R) ch, ~192.00 kbps avg (ENG)
    -

    Скриншоты

    -

    MediaInfo

    General
    Complete name                            : D:\I_ gryanul_shtorm_2016_BDRip-AVC_Line_by_Dalemake.mkv
    Format                                   : Matroska
    Format version                           : Version 4 / Version 2
    File size                                : 1.45 GiB
    Duration                                 : 1h 57mn
    Overall bit rate                         : 1 773 Kbps
    Movie name                               : [I gryanul shtorm 2016_All Films Rutracker.org_by Dalemake]
    Encoded date                             : UTC 2016-05-15 11:11:11
    Writing application                      : mkvmerge v7.8.0 ('River Man') 32bit built on Apr  3 2015 12:11:22
    Writing library                          : libebml v1.3.1 + libmatroska v1.4.2
    Attachments                              : 148457_front.jpg
    Video
    ID                                       : 1
    Format                                   : AVC
    Format/Info                              : Advanced Video Codec
    Format profile                           : High@L4.1
    Format settings, CABAC                   : Yes
    Format settings, ReFrames                : 14 frames
    Codec ID                                 : V_MPEG4/ISO/AVC
    Duration                                 : 1h 57mn
    Bit rate                                 : 1 390 Kbps
    Width                                    : 960 pixels
    Height                                   : 400 pixels
    Display aspect ratio                     : 2.40:1
    Frame rate mode                          : Constant
    Frame rate                               : 23.976 (24000/1001) fps
    Color space                              : YUV
    Chroma subsampling                       : 4:2:0
    Bit depth                                : 8 bits
    Scan type                                : Progressive
    Bits/(Pixel*Frame)                       : 0.151
    Stream size                              : 1.14 GiB (78%)
    Title                                    : [I gryanul shtorm 2016_All Films Rutracker.org_by Dalemake]
    Writing library                          : x264 core 146 r2538 121396c
    Encoding settings                        : cabac=1 / ref=14 / deblock=1:-3:-2 / analyse=0x3:0x133 / me=umh / subme=11 / psy=1 / psy_rd=1.00:0.00 / mixed_ref=1 / me_range=48 / chroma_me=1 / trellis=2 / 8x8dct=1 / cqm=0 / deadzone=21,11 / fast_pskip=1 / chroma_qp_offset=-4 / threads=6 / lookahead_threads=1 / sliced_threads=0 / nr=0 / decimate=0 / interlaced=0 / bluray_compat=0 / constrained_intra=0 / bframes=15 / b_pyramid=2 / b_adapt=2 / b_bias=0 / direct=3 / weightb=1 / open_gop=0 / weightp=2 / keyint=250 / keyint_min=23 / scenecut=40 / intra_refresh=0 / rc_lookahead=60 / rc=2pass / mbtree=0 / bitrate=1390 / ratetol=1.0 / qcomp=0.60 / qpmin=0 / qpmax=69 / qpstep=4 / cplxblur=20.0 / qblur=0.5 / vbv_maxrate=50000 / vbv_bufsize=62500 / nal_hrd=none / filler=0 / ip_ratio=1.40 / pb_ratio=1.30 / aq=1:1.00
    Default                                  : Yes
    Forced                                   : No
    Audio #1
    ID                                       : 2
    Format                                   : AC-3
    Format/Info                              : Audio Coding 3
    Mode extension                           : CM (complete main)
    Format settings, Endianness              : Big
    Codec ID                                 : A_AC3
    Duration                                 : 1h 57mn
    Bit rate mode                            : Constant
    Bit rate                                 : 192 Kbps
    Channel(s)                               : 2 channels
    Channel positions                        : Front: L R
    Sampling rate                            : 48.0 KHz
    Frame rate                               : 31.250 fps (1536 spf)
    Compression mode                         : Lossy
    Stream size                              : 161 MiB (11%)
    Title                                    : Dub - Line
    Language                                 : Russian
    Default                                  : Yes
    Forced                                   : No
    Audio #2
    ID                                       : 3
    Format                                   : AC-3
    Format/Info                              : Audio Coding 3
    Mode extension                           : CM (complete main)
    Format settings, Endianness              : Big
    Codec ID                                 : A_AC3
    Duration                                 : 1h 57mn
    Bit rate mode                            : Constant
    Bit rate                                 : 192 Kbps
    Channel(s)                               : 2 channels
    Channel positions                        : Front: L R
    Sampling rate                            : 48.0 KHz
    Frame rate                               : 31.250 fps (1536 spf)
    Compression mode                         : Lossy
    Stream size                              : 161 MiB (11%)
    Title                                    : Original
    Language                                 : English
    Default                                  : No
    Forced                                   : No
    Text #1
    ID                                       : 4
    Format                                   : UTF-8
    Codec ID                                 : S_TEXT/UTF8
    Codec ID/Info                            : UTF-8 Plain Text
    Duration                                 : 1h 49mn
    Bit rate                                 : 72 bps
    Count of elements                        : 968
    Stream size                              : 58.2 KiB (0%)
    Title                                    : Full
    Language                                 : Russian
    Default                                  : No
    Forced                                   : No
    Text #2
    ID                                       : 5
    Format                                   : UTF-8
    Codec ID                                 : S_TEXT/UTF8
    Codec ID/Info                            : UTF-8 Plain Text
    Duration                                 : 1h 48mn
    Bit rate                                 : 46 bps
    Count of elements                        : 942
    Stream size                              : 36.9 KiB (0%)
    Title                                    : Full
    Language                                 : English
    Default                                  : No
    Forced                                   : No
    Menu
    00:00:00.000                             : en:00:00:00.000
    00:09:13.887                             : en:00:09:13.887
    00:14:22.195                             : en:00:14:22.195
    00:19:52.108                             : en:00:19:52.108
    00:22:56.792                             : en:00:22:56.792
    00:28:34.379                             : en:00:28:34.379
    00:34:05.210                             : en:00:34:05.210
    00:36:59.384                             : en:00:36:59.384
    00:42:50.902                             : en:00:42:50.902
    00:45:01.157                             : en:00:45:01.157
    00:46:59.442                             : en:00:46:59.442
    00:48:44.463                             : en:00:48:44.463
    00:50:12.551                             : en:00:50:12.551
    00:55:53.141                             : en:00:55:53.141
    01:04:47.967                             : en:01:04:47.967
    01:08:58.634                             : en:01:08:58.634
    01:11:38.836                             : en:01:11:38.836
    01:16:16.489                             : en:01:16:16.489
    01:20:30.325                             : en:01:20:30.325
    01:33:30.480                             : en:01:33:30.480
    01:42:27.641                             : en:01:42:27.641
    01:49:40.324                             : en:01:49:40.324
    -
    Скачать .torrent

    Скачать торрент-файл бесплатно и на максимальной скорости!

    Как скачивать? · Что такое торрент? · Рейтинг и ограничения

    !ВНИМАНИЕ!
    Сайт не распространяет и не хранит электронные версии произведений, а занимается лишь лишь предоставлением доступа к создаваемому пользователями каталогу ссылок на торрент-файлы, которые содержат только списки хеш-сумм, убедительная просьба с жалобами обращаться напрямую к пользователю. Файлы для обмена на трекере предоставлены пользователями сайта, и администрация не несёт ответственности за их содержание. Просьба не заливать файлы, защищенные авторскими правами, а также файлы нелегального содержания!


    _________________
    [Профиль] [ЛС]
    Показать сообщения:    
    Ответить на тему

    Текущее время: Сегодня, в 11:59

    Часовой пояс: GMT + 2



    Вы не можете начинать темы
    Вы не можете отвечать на сообщения
    Вы не можете редактировать свои сообщения
    Вы не можете удалять свои сообщения
    Вы не можете голосовать в опросах
    Вы не можете прикреплять файлы к сообщениям
    Вы не можете скачивать файлы