BitTorrentTracker PerecTracker.org
BitTorrentTracker PerecTracker.org
    
Регистрация  ·  Вход
 
 · 
Забыли пароль?

  • Последняя кампания / La derniere campagne (Бернар Стора / Bernard Stora) [2012, Франция, историческая фантасмагория, DVB] Original (Fre) + Sub (Rus, Eng, Fre, Deu)

    Ответить на тему
     
    Автор Сообщение

    Light

    Создавать темы 15-Май-2016 15:00

           

    [Цитировать]

    Последняя кампания
    La dernière campagne-Страна: Франция
    Жанр: историческая фантасмагория
    Год выпуска: 2012
    Продолжительность: 01:44:49
    Перевод: Субтитры (перевод К.Семенюк, Éclair Group)
    Cубтитры: русские, английские, французские, немецкие, нидерландские, румынские
    Оригинальная аудиодорожка: французский
    Режиссер: Бернар Стора / Bernard StoraВ ролях: Бернар Ле Кок / Bernard Le Coq (Jacques Chirac), Патрик Брауде / Patrick Braoudé (François Hollande), Тьерри Фремон / Thierry Frémont (Nicolas Sarkozy), Мартина Шевалье / Martine Chevallier (Bernadette Chirac), Анн Луаре / Anne Loiret (Claude Chirac), Эрик-Эммануэль Шмитт / Eric-Emmanuel Schmitt (Patrick Buisson), Микаэль Абитбуль / Michaël Abiteboul (Kevin)
    Описание: 15 декабря 2011 года Франция была ошеломлена – Жак Ширак приговорен Парижским судом к двум годам лишения свободы условно за превышение служебных полномочий и растрату государственных средств в 1990-1995 годах, когда он был мэром Парижа. Никогда в истории Республики бывший президент не переносил такого позора. В тот же вечер офис Жака Ширака выпустил пресс-релиз: старик отказывается от апелляции, у него нет больше сил для борьбы. Что же согбенный возрастом и болезнью Жак Ширак будет сметен течением беспощадного времени? Нет, у него еще достаточно душевных сил, чтобы вмешаться в поединок между Николя Саркози и Франсуа Олландом на очередных президентских выборах. У каждого из них собственное видение современной Франции. Что же склонит чашу весов в сторону одного из них?
    Доп. информация: Hot Bird (13.0°E) TV5MONDE Europe DVB-S
    Награды: приз Golden FIPA - Biarritz International Festival of Audiovisual Programming 2013 лучшему актеру (Bernard Le Coq); приз за лучший сценарий Festival du film de télévision de Luchon 2013; приз Historia de l'Inattendu 2013.

    Качество видео: DVB
    Формат видео: TS
    Видео: MPEG Video 2, 720x576@1024x576 (16:9), 25 fps, ~3284 kbps avg, 0.317 bit/pixel
    Аудио: MPEG Audio 2, 2 ch, 48 kHz, 192 kbps - французский
    Формат субтитров: PGS

    MediaInfo

    GeneralID : 1 (0x1)Complete name : [apreder]La_derniere_campagne(2012)DVB.tsFormat : MPEG-TSFile size : 2.68 GiBDuration : 1h 44mnOverall bit rate mode : VariableOverall bit rate : 3 658 KbpsMaximum Overall bit rate : 35.5 Mbps
    VideoID : 4113 (0x1011)Menu ID : 1 (0x1)Format : MPEG VideoFormat version : Version 2Format profile : Main@MainFormat settings, BVOP : YesFormat settings, Matrix : CustomFormat settings, GOP : M=4, N=12Format settings, picture structure : FrameCodec ID : 2Duration : 1h 44mnBit rate mode : VariableBit rate : 3 284 KbpsWidth : 720 pixelsHeight : 576 pixelsDisplay aspect ratio : 16:9Frame rate : 25.000 fpsStandard : PALColor space : YUVChroma subsampling : 4:2:0Bit depth : 8 bitsScan type : InterlacedScan order : Top Field FirstCompression mode : LossyBits/(Pixel*Frame) : 0.317Time code of first frame : 00:00:00:00Time code source : Group of pictures headerGOP, Open/Closed : OpenGOP, Open/Closed of first frame : ClosedStream size : 2.40 GiB (90%)
    AudioID : 4352 (0x1100)Menu ID : 1 (0x1)Format : MPEG AudioFormat version : Version 1Format profile : Layer 2Mode : Joint stereoMode extension : Intensity Stereo + MS StereoCodec ID : 4Duration : 1h 44mnBit rate mode : ConstantBit rate : 192 KbpsChannel(s) : 2 channelsSampling rate : 48.0 KHzCompression mode : LossyStream size : 144 MiB (5%)Language : French
    Text #1ID : 4608 (0x1200)Menu ID : 1 (0x1)Format : PGSCodec ID : 144Duration : 1h 44mnDelay relative to video : 15s 440msLanguage : Russian
    Text #2ID : 4609 (0x1201)Menu ID : 1 (0x1)Format : PGSCodec ID : 144Delay relative to video : 15s 440msLanguage : English
    Text #3ID : 4610 (0x1202)Menu ID : 1 (0x1)Format : PGSCodec ID : 144Language : French
    Text #4ID : 4611 (0x1203)Menu ID : 1 (0x1)Format : PGSCodec ID : 144Duration : 1h 44mnDelay relative to video : 15s 440msLanguage : German
    Text #5ID : 4612 (0x1204)Menu ID : 1 (0x1)Format : PGSCodec ID : 144Duration : 1h 44mnDelay relative to video : 15s 440msLanguage : Dutch
    Text #6ID : 4613 (0x1205)Menu ID : 1 (0x1)Format : PGSCodec ID : 144Delay relative to video : 15s 440msLanguage : Romanian

    Скриншот c названием фильма

    Скриншоты

    Резервные скриншоты


    -[1'135]
    Скачать .torrent

    Скачать торрент-файл бесплатно и на максимальной скорости!

    Как скачивать? · Что такое торрент? · Рейтинг и ограничения

    !ВНИМАНИЕ!
    Сайт не распространяет и не хранит электронные версии произведений, а занимается лишь лишь предоставлением доступа к создаваемому пользователями каталогу ссылок на торрент-файлы, которые содержат только списки хеш-сумм, убедительная просьба с жалобами обращаться напрямую к пользователю. Файлы для обмена на трекере предоставлены пользователями сайта, и администрация не несёт ответственности за их содержание. Просьба не заливать файлы, защищенные авторскими правами, а также файлы нелегального содержания!


    _________________
    [Профиль] [ЛС]
    Показать сообщения:    
    Ответить на тему

    Текущее время: Сегодня, в 16:25

    Часовой пояс: GMT + 2



    Вы не можете начинать темы
    Вы не можете отвечать на сообщения
    Вы не можете редактировать свои сообщения
    Вы не можете удалять свои сообщения
    Вы не можете голосовать в опросах
    Вы не можете прикреплять файлы к сообщениям
    Вы не можете скачивать файлы