BitTorrentTracker PerecTracker.org
BitTorrentTracker PerecTracker.org
    
Регистрация  ·  Вход
 
 · 
Забыли пароль?

  • Полный абзац / Whole Lotta Sole () [2011, Великобритания, драма, комедия, DVDRip] MVO

    Ответить на тему
     
    Автор Сообщение

    Columb

    Создавать темы 16-Фев-2014 11:04

           

    [Цитировать]

    Полный абзац / Whole Lotta Sole--Год выпуска: 2011
    Страна: Великобритания
    Жанр: драма, комедия
    Продолжительность: 01:25:42
    Перевод:

    Профессиональный (многоголосый закадровый)
    Русские субтитры: нет
    Режиссер: Терри Джордж / Terry George-В ролях: Брендан Фрейзер, Колм Мини, Мартин МакКанн, Йайа ДаКоста, Дэвид О’Хара, Майкл Лидж, Конор МакНил, Фрэнки МакКафферти, Руперт Викхэм, Мэри МакКроссен-Описание: Дело происходит в Северной Ирландии. В центре сюжета — молодой бездельник Джимбо, ступивший на скользкую дорожку азартных игр. Дебют вышел не слишком удачным: Джимбо проигрался в пух и прах, и теперь ему нужно рассчитаться с долгами. Не придумав ничего лучше, парень решает ограбить рыбную лавку, но и тут Джимбо ждут осложнения: предприятие принимает серьезный оборот, и горе-грабителю приходится взять заложников.-Качество: DVDRip
    Формат: AVI
    Видео кодек: XviD
    Видео: 688x368 (1.87:1), 25 fps, XviD build 73 ~1013 kbps avg, 0.16 bit/pixel
    Аудио: 48 kHz, AC3 Dolby Digital, 2/0 (L,R) ch, ~192 kbps
    -

    МИ

    General
    Complete name : D:\TORRENTS for WORK\RIPS in WORK\Polniy_Abzats_2011_DVDRip_Menen.avi
    Format : AVI
    Format/Info : Audio Video Interleave
    File size : 745 MiB
    Duration : 1h 25mn
    Overall bit rate : 1 215 Kbps
    Movie name : Polniy_Abzats_2011_DVDRip_Menen
    Director : Menen
    Writing application : VirtualDubMod 1.5.10.2 (build 2540/release)
    Video
    ID : 0
    Format : MPEG-4 Visual
    Format profile : Advanced Simple@L5
    Format settings, BVOP : 1
    Format settings, QPel : No
    Format settings, GMC : No warppoints
    Format settings, Matrix : Custom
    Codec ID : XVID
    Codec ID/Hint : XviD
    Duration : 1h 25mn
    Bit rate : 1 013 Kbps
    Width : 688 pixels
    Height : 368 pixels
    Display aspect ratio : 1.85:1
    Frame rate : 25.000 fps
    Color space : YUV
    Chroma subsampling : 4:2:0
    Bit depth : 8 bits
    Scan type : Progressive
    Compression mode : Lossy
    Bits/(Pixel*Frame) : 0.160
    Stream size : 621 MiB (83%)
    Writing library : XviD 73
    Audio
    ID : 1
    Format : AC-3
    Format/Info : Audio Coding 3
    Mode extension : CM (complete main)
    Format settings, Endianness : Big
    Codec ID : 2000
    Duration : 1h 25mn
    Bit rate mode : Constant
    Bit rate : 192 Kbps
    Channel(s) : 2 channels
    Channel positions : Front: L R
    Sampling rate : 48.0 KHz
    Bit depth : 16 bits
    Compression mode : Lossy
    Stream size : 118 MiB (16%)
    Alignment : Split accross interleaves
    Interleave, duration : 40 ms (1.00 video frame)
    Interleave, preload duration : 500 ms
    -

    Скриншоты

    ---
    Скачать .torrent

    Скачать торрент-файл бесплатно и на максимальной скорости!

    Как скачивать? · Что такое торрент? · Рейтинг и ограничения

    !ВНИМАНИЕ!
    Сайт не распространяет и не хранит электронные версии произведений, а занимается лишь лишь предоставлением доступа к создаваемому пользователями каталогу ссылок на торрент-файлы, которые содержат только списки хеш-сумм, убедительная просьба с жалобами обращаться напрямую к пользователю. Файлы для обмена на трекере предоставлены пользователями сайта, и администрация не несёт ответственности за их содержание. Просьба не заливать файлы, защищенные авторскими правами, а также файлы нелегального содержания!

    [Профиль] [ЛС]
    Показать сообщения:    
    Ответить на тему

    Текущее время: Сегодня, в 19:34

    Часовой пояс: GMT + 2



    Вы не можете начинать темы
    Вы не можете отвечать на сообщения
    Вы не можете редактировать свои сообщения
    Вы не можете удалять свои сообщения
    Вы не можете голосовать в опросах
    Вы не можете прикреплять файлы к сообщениям
    Вы не можете скачивать файлы