Register  ·  Log in
Forgot password?

  • Полный абзац / Whole Lotta Sole () [2011, Великобритания, драма, комедия, DVDRip] MVO

    Reply to topic
    Author Message


    Post 16-Feb-2014 12:04



    Полный абзац / Whole Lotta Sole--Год выпуска: 2011
    Страна: Великобритания
    Жанр: драма, комедия
    Продолжительность: 01:25:42

    Профессиональный (многоголосый закадровый)
    Русские субтитры: нет
    Режиссер: Терри Джордж / Terry George-В ролях: Брендан Фрейзер, Колм Мини, Мартин МакКанн, Йайа ДаКоста, Дэвид О’Хара, Майкл Лидж, Конор МакНил, Фрэнки МакКафферти, Руперт Викхэм, Мэри МакКроссен-Описание: Дело происходит в Северной Ирландии. В центре сюжета — молодой бездельник Джимбо, ступивший на скользкую дорожку азартных игр. Дебют вышел не слишком удачным: Джимбо проигрался в пух и прах, и теперь ему нужно рассчитаться с долгами. Не придумав ничего лучше, парень решает ограбить рыбную лавку, но и тут Джимбо ждут осложнения: предприятие принимает серьезный оборот, и горе-грабителю приходится взять заложников.-Качество: DVDRip
    Формат: AVI
    Видео кодек: XviD
    Видео: 688x368 (1.87:1), 25 fps, XviD build 73 ~1013 kbps avg, 0.16 bit/pixel
    Аудио: 48 kHz, AC3 Dolby Digital, 2/0 (L,R) ch, ~192 kbps


    Complete name : D:\TORRENTS for WORK\RIPS in WORK\Polniy_Abzats_2011_DVDRip_Menen.avi
    Format : AVI
    Format/Info : Audio Video Interleave
    File size : 745 MiB
    Duration : 1h 25mn
    Overall bit rate : 1 215 Kbps
    Movie name : Polniy_Abzats_2011_DVDRip_Menen
    Director : Menen
    Writing application : VirtualDubMod (build 2540/release)
    ID : 0
    Format : MPEG-4 Visual
    Format profile : Advanced Simple@L5
    Format settings, BVOP : 1
    Format settings, QPel : No
    Format settings, GMC : No warppoints
    Format settings, Matrix : Custom
    Codec ID : XVID
    Codec ID/Hint : XviD
    Duration : 1h 25mn
    Bit rate : 1 013 Kbps
    Width : 688 pixels
    Height : 368 pixels
    Display aspect ratio : 1.85:1
    Frame rate : 25.000 fps
    Color space : YUV
    Chroma subsampling : 4:2:0
    Bit depth : 8 bits
    Scan type : Progressive
    Compression mode : Lossy
    Bits/(Pixel*Frame) : 0.160
    Stream size : 621 MiB (83%)
    Writing library : XviD 73
    ID : 1
    Format : AC-3
    Format/Info : Audio Coding 3
    Mode extension : CM (complete main)
    Format settings, Endianness : Big
    Codec ID : 2000
    Duration : 1h 25mn
    Bit rate mode : Constant
    Bit rate : 192 Kbps
    Channel(s) : 2 channels
    Channel positions : Front: L R
    Sampling rate : 48.0 KHz
    Bit depth : 16 bits
    Compression mode : Lossy
    Stream size : 118 MiB (16%)
    Alignment : Split accross interleaves
    Interleave, duration : 40 ms (1.00 video frame)
    Interleave, preload duration : 500 ms


    Download .torrent

    Download free and at maximum speed!

    How to Download? · What is a torrent? · Ratings and Limitations

    The site does not extend and does not store electronic(digital) versions of products, and only gives access to a reference catalogue created by users on torrent-files which contain only lists of the hash-sums, the earnest entreaty, with complaints(abuse) to access directly to the user. Files for an exchange on tracker are given by users of a site, and the administration does not bear the responsibility for their maintenance. The request to not fill in the files protected by copyrights, and also files of the illegal maintenance!

    [Profile] [PM]
    Display posts from previous:    
    Reply to topic

    The time now is: Today 00:20

    All times are GMT + 3 Hours

    You cannot post new topics in this forum
    You cannot reply to topics in this forum
    You cannot edit your posts in this forum
    You cannot delete your posts in this forum
    You cannot vote in polls in this forum
    You cannot attach files in this forum
    You cannot download files in this forum