BitTorrentTracker PerecTracker.org
BitTorrentTracker PerecTracker.org
    
Регистрация  ·  Вход
 
 · 
Забыли пароль?

  • Хани мани / Honey Money (Арсен Агаджанян, Сурен Шахвердян, Артем Багдасарян) [2015, Россия, Армения, комедия, приключения, семейный, WEB-DLRip-AVC]

    Ответить на тему
     
    Автор Сообщение

    Flirldrerve

    Создавать темы 14-Май-2016 18:37

           

    [Цитировать]

    Хани мани
    Honey Money
    «искал я сны во снах своих...»

    Страна: Россия, Армения
    Жанр: комедия, приключения, семейный
    Год выпуска: 2015
    Продолжительность: 01:20:15
    Перевод: Не требуется (русский)
    Cубтитры: нет
    Оригинальная аудиодорожка: русский
    Режиссер: Арсен Агаджанян, Сурен Шахвердян, Артем Багдасарян
    В ролях: Айк Саргсян, Йонас Версецкас, Микаел Погосян, Давид Тадевосян, Арташес Алексаняан, Луиза Гамбарян
    Описание:
    Вилену Апресяну, заместителю главы Центрального банка, грозит увольнение, если через два дня прибывающий в страну руководитель международной кредитной организации не подпишет договор на выделение 50-миллионного транша. Ситуация безнадежная, и Вилена может спасти только чудо.
    Автор рипа: Stalker oK
    Сэмпл
    Качество видео: WEB-DLRip-AVC [BLUEBIRD / WEB-DL / 1080p]
    Формат видео: MKV
    Видео кодек: AVC
    Аудио кодек: AAC
    Видео: 1235 Кбит/сек, 704*396 (16:9), в 25,000 кадров/сек, AVC
    Аудио: русский, 64,0 Кбит/сек, 48,0 КГц / 24,0 КГц, 2 канала, AAC (HE-AAC / LC) [iTunes]
    Навигация по главам: есть

    MediaInfo

    Общее
    Уникальный идентификатор : 239833738993761253787938892414272140373 (0xB46E4C471F5E64A39E8337EFC08BF455)
    Полное имя : M:\1WEB-DL\Honey Money\Honey.Money.2015.WEB-DLRip-AVC.745Mb.stalkerok.new-team.mkv
    Формат : Matroska
    Версия формата : Version 4 / Version 2
    Размер файла : 747 Мбайт
    Продолжительность : 1 ч. 20 м.
    Общий поток : 1301 Кбит/сек
    Название фильма : Honey Money (2015) (New-Team) (Rip by Stalker oK)
    Дата кодирования : UTC 2016-05-14 14:17:35
    Программа кодирования : mkvmerge v8.6.1 ('Flying') 64bit
    Библиотека кодирования : libebml v1.3.3 + libmatroska v1.4.4
    Видео
    Идентификатор : 1
    Формат : AVC
    Формат/Информация : Advanced Video Codec
    Профиль формата : High@L4.1
    Параметр CABAC формата : Да
    Параметр ReFrames формата : 16 кадров
    Идентификатор кодека : V_MPEG4/ISO/AVC
    Продолжительность : 1 ч. 20 м.
    Битрейт : 1235 Кбит/сек
    Ширина : 704 пикселя
    Высота : 396 пикселей
    Соотношение сторон : 16:9
    Режим частоты кадров : Постоянный
    Частота кадров : 25,000 кадров/сек
    Цветовое пространство : YUV
    Субдискретизация насыщенности : 4:2:0
    Битовая глубина : 8 бит
    Тип развёртки : Прогрессивная
    Бит/(Пиксели*Кадры) : 0.177
    Размер потока : 709 Мбайт (95%)
    Заголовок : Honey Money (2015) (New-Team) (Rip by Stalker oK)
    Библиотека кодирования : x264 core 148 r2665kMod a01e339
    Настройки программы : cabac=1 / ref=16 / deblock=1:-3:-2 / analyse=0x3:0x133 / me=umh / subme=11 / psy=1 / fade_compensate=0.00 / psy_rd=1.00:0.02 / mixed_ref=1 / me_range=32 / chroma_me=1 / trellis=2 / 8x8dct=1 / cqm=0 / deadzone=21,11 / fast_pskip=0 / chroma_qp_offset=-3 / threads=12 / lookahead_threads=3 / sliced_threads=0 / nr=0 / decimate=0 / interlaced=0 / bluray_compat=0 / constrained_intra=0 / fgo=0 / bframes=16 / b_pyramid=2 / b_adapt=2 / b_bias=0 / direct=3 / weightb=1 / open_gop=0 / weightp=2 / keyint=250 / keyint_min=25 / scenecut=40 / intra_refresh=0 / rc_lookahead=60 / rc=2pass / mbtree=0 / bitrate=1235 / ratetol=1.0 / qcomp=0.65 / qpmin=0 / qpmax=69 / qpstep=4 / cplxblur=20.0 / qblur=0.5 / vbv_maxrate=50000 / vbv_bufsize=62500 / nal_hrd=none / filler=0 / ip_ratio=1.40 / pb_ratio=1.30 / aq=1:0.90
    Default : Да
    Forced : Нет
    Аудио
    Идентификатор : 2
    Формат : AAC
    Формат/Информация : Advanced Audio Codec
    Профиль формата : HE-AAC / LC
    Идентификатор кодека : A_AAC
    Продолжительность : 1 ч. 20 м.
    Битрейт : 64,0 Кбит/сек
    Каналы : 2 канала
    Расположение каналов : Front: L R
    Частота : 48,0 КГц / 24,0 КГц
    Частота кадров : 23,438 кадра/сек (1024 spf)
    Метод сжатия : С потерями
    Задержка видео : 31 мс.
    Размер потока : 36,7 Мбайт (5%)
    Язык : Russian
    Default : Да
    Forced : Нет
    Меню
    00:00:00.000 : en:Глава 1
    00:06:48.360 : en:Глава 2
    00:12:30.600 : en:Глава 3
    00:17:41.880 : en:Глава 4
    00:22:03.520 : en:Глава 5
    00:28:29.120 : en:Глава 6
    00:32:55.960 : en:Глава 7
    00:42:56.160 : en:Глава 8
    00:48:08.080 : en:Глава 9
    00:52:36.600 : en:Глава 10
    00:57:49.680 : en:Глава 11
    01:01:18.440 : en:Глава 12
    01:06:21.720 : en:Глава 13
    01:13:38.920 : en:Глава 14

    Скриншоты

    Скачать .torrent

    Скачать торрент-файл бесплатно и на максимальной скорости!

    Как скачивать? · Что такое торрент? · Рейтинг и ограничения

    !ВНИМАНИЕ!
    Сайт не распространяет и не хранит электронные версии произведений, а занимается лишь лишь предоставлением доступа к создаваемому пользователями каталогу ссылок на торрент-файлы, которые содержат только списки хеш-сумм, убедительная просьба с жалобами обращаться напрямую к пользователю. Файлы для обмена на трекере предоставлены пользователями сайта, и администрация не несёт ответственности за их содержание. Просьба не заливать файлы, защищенные авторскими правами, а также файлы нелегального содержания!


    _________________
    [Профиль] [ЛС]
    Показать сообщения:    
    Ответить на тему

    Текущее время: Сегодня, в 18:57

    Часовой пояс: GMT + 2



    Вы не можете начинать темы
    Вы не можете отвечать на сообщения
    Вы не можете редактировать свои сообщения
    Вы не можете удалять свои сообщения
    Вы не можете голосовать в опросах
    Вы не можете прикреплять файлы к сообщениям
    Вы не можете скачивать файлы