BitTorrentTracker PerecTracker.org
BitTorrentTracker PerecTracker.org
    
Регистрация  ·  Вход
 
 · 
Забыли пароль?

  • Небеса в огне / Heaven\'s Burning (Крэйг Лахифф) [1997, Австралия, боевик, триллер, драма, мелодрама, криминал, WEB-DL HD (720p)] MVO, Original + SUB (eng)

    Ответить на тему
     
    Автор Сообщение

    rechyn

    Создавать темы 14-Май-2016 18:37

           

    [Цитировать]

    Небеса в огне / Heaven's Burning
    "Too Many Guns"
    6.014 / 10
    -Год выпуска: 1997
    Страна: Австралия
    Жанр: боевик, триллер, драма, мелодрама, криминал
    Продолжительность: 100 мин. (01:39:41)
    Перевод: Многолосый закадровый перевод
    Оригинальная аудиодорожка: Есть
    Cубтитры: Английские полные SDH
    Режиссёр: Крэйг Лахифф
    Сценарий: Луис Наура
    Продюсер: Аль Кларк, Хелен Лик, Крэйг Лахифф
    Оператор: Брайан Дж. Бреэни
    Композитор: Майкл Эткинсон, Грэм Коне
    Художник: Вики Нихас, Хью Бэйтап, Энни Маршалл
    Монтаж: Джон Скотт
    В ролях: Рассел Кроу, Юки Кудо, Кэндзи Исомура, Рэй Баррет, Роберт Маммоне, Петру Георгиу, Энтони Фелан, Мэтью Дукански, Колин Хэй, Сьюзэн Прайор
    Мировая премьера: 4 сентября 1997
    Описание: Японскую невесту по имени Мидори похищают во время медового месяца в качестве заложницы при ограблении банка в Сиднее. Как свидетельницу (она увидела грабителей без масок), ее ждет верная смерть, но ее спасает Колин, водитель машины "ухода".
    Защищая Мидори, Колин убивает младшего брата главаря банды, вызывая на себя гнев и месть Махуда и его крутого отца Бурджана. Защищая хрупкую женщину, уходя от погони гангстеров и мужа, Колин и Мидори несутся через всю страну и в пути страстно влюбляются друг в друга...-Качество исходника: WEB-DL 720p (HDClub)
    Качество: WEB-DL
    Тип: 720p
    Контейнер: m4v
    Видео: 1280x542 at 23.976 fps, MPEG-4 AVC, ~4000 kbps avg
    Аудио#1: Russian: 48 kHz, ААС, 2/0 (L,R), ~160.00 kbps avg |Многолосый закадровый, |
    Аудио#2: Ukrainian: 48 kHz, ААС, 2/0 (L,R), ~160.00 kbps avg |Многолосый закадровый, K1|
    Аудио#3: English: 48 kHz, ААС, 2/0 (L,R), ~160.00 kbps avg
    Субтитры №1: English: |Полные|-

    Знаете ли Вы, что...

    • Премьера этого фильма состоялась на кинофестивале в Торонто через день после североамериканской премьеры «Секретов Лос-Анджелеса» на том же фестивале.
    • «Небеса в огне» так и не вышел в прокат в Америке.

    -

    iTunes Meta Tags for country us

    Name: Heaven's Burning
    Artist: Craig Lahiff
    Genre: Drama
    Release Date: 1997-09-04T08:00:00Z
    Description: Японскую невесту по имени Мидори похищают во время медового месяца в качестве заложницы при ограблении банка в Сиднее. Как свидетельницу, ее ждет верная смерть, но ее спасает Колин, водитель машины "ухода". Защищая хрупкую женщину, уходя от погони гангстеров и мужа, Колин и Мидори несутся через всю страну и в пути страстно влюбляются друг в друга...
    Long Description: Японскую невесту по имени Мидори похищают во время медового месяца в качестве заложницы при ограблении банка в Сиднее. Как свидетельницу (она увидела грабителей без масок), ее ждет верная смерть, но ее спасает Колин, водитель машины "ухода".
    Защищая Мидори, Колин убивает младшего брата главаря банды, вызывая на себя гнев и месть Махуда и его крутого отца Бурджана. Защищая хрупкую женщину, уходя от погони гангстеров и мужа, Колин и Мидори несутся через всю страну и в пути страстно влюбляются друг в друга...
    Rating: R
    Studio: Lionsgate
    Cast: Рассел Кроу, Юки Кудо, Кэндзи Исомура, Рэй Баррет, Роберт Маммоне, Петру Георгиу, Энтони Фелан, Мэтью Дукански, Колин Хэй, Сьюзэн Прайор
    Director: Крэйг Лахифф
    Producers: Аль Кларк, Хелен Лик, Крэйг Лахифф
    Screenwriters: Луис Наура
    contentID: 724773544
    XID: Apple:vendor_id:1997-12247
    Sort Name: Heaven's Burning

    MediaInfo 720p Release

    Общее
    Полное имя : Heaven's Burning (HD).m4v
    Формат : MPEG-4
    Идентификатор кодека : M4V  (M4V /M4A /mp42/isom)
    Размер файла : 3,09 Гбайт
    Продолжительность : 1 ч. 39 м.
    Режим общего битрейта : Переменный
    Общий поток : 4441 Кбит/сек
    Название фильма : Heaven's Burning
    Исполнитель : Craig Lahiff
    Режиссёр : Крэйг Лахифф
    Исполнитель : Рассел Кроу / Юки Кудо / Кэндзи Исомура / Рэй Баррет / Роберт Маммоне / Петру Георгиу / Энтони Фелан / Мэтью Дукански / Колин Хэй / Сьюзэн Прайор
    Сценарист : Луис Наура
    Продюсер : Аль Кларк / Хелен Лик / Крэйг Лахифф
    Студия-производитель : Lionsgate
    Жанр : Drama
    Тип содержимого : Short Film
    Описание : Японскую невесту по имени Мидори похищают во время медового месяца в качестве заложницы при ограблении банка в Сиднее. Как свидетельницу, ее ждет верная смерть, но ее спасает Колин, водитель машины "ухода". Защищая хрупкую женщину, уходя от погони гангстеров и мужа, Колин и Мидори несутся через всю страну и в пути страстно влюбляются друг в друга...
    Дата записи : UTC 1997-09-04 08:00:00
    Дата кодирования : UTC 2016-05-14 10:13:32
    Дата пометки : UTC 2016-05-14 10:19:19
    Обложка : Yes
    Оценка : None
    Title/Sort : Heaven's Burning
    LongDescription : Японскую невесту по имени Мидори похищают во время медового месяца в качестве заложницы при ограблении банка в Сиднее. Как свидетельницу (она увидела грабителей без масок), ее ждет верная смерть, но ее спасает Колин, водитель машины "ухода". / Защищая Мидори, Колин убивает младшего брата главаря банды, вызывая на себя гнев и месть Махуда и его крутого отца Бурджана. Защищая хрупкую женщину, уходя от погони гангстеров и мужа, Колин и Мидори несутся через всю страну и в пути страстно влюбляются друг в друга...
    HDVideo : Yes
    AppleStoreCatalogID : 724773544
    Vendor : Apple:vendor_id:1997-12247
    ContentRating : mpaa|R|400|
    Видео #1
    Идентификатор : 1
    Формат : AVC
    Формат/Информация : Advanced Video Codec
    Профиль формата : Main@L3.1
    Параметр CABAC формата : Нет
    Параметр ReFrames формата : 2 кадра
    Идентификатор кодека : avc1
    Идентификатор кодека/Информация : Advanced Video Coding
    Продолжительность : 1 ч. 39 м.
    Битрейт : 4017 Кбит/сек
    Ширина : 1280 пикселей
    Высота : 542 пикселя
    Соотношение сторон : 2,35:1
    Режим частоты кадров : Переменный
    Частота кадров : 23,976 (23976/1000) кадра/сек
    Минимальная частота кадров : 23,810 кадра/сек
    Максимальная частота кадров : 24,390 кадра/сек
    Цветовое пространство : YUV
    Субдискретизация насыщенности : 4:2:0
    Битовая глубина : 8 бит
    Тип развёртки : Прогрессивная
    Бит/(Пиксели*Кадры) : 0.242
    Размер потока : 2,80 Гбайт (90%)
    Заголовок : Main Program
    Язык : English
    Дата кодирования : UTC 2016-05-14 10:13:32
    Дата пометки : UTC 2016-05-14 10:16:19
    Цветовой диапазон : Limited
    Основные цвета : BT.709
    Характеристики трансфера : BT.709
    Коэффициенты матрицы : BT.709
    Menus : 6,7
    Видео #2
    Идентификатор : 7
    Формат : JPEG
    Идентификатор кодека : jpeg
    Продолжительность : 1 ч. 39 м.
    Вид битрейта : Переменный
    Битрейт : 962 бит/сек
    Ширина : 640 пикселей
    Высота : 271 пикселей
    Соотношение сторон : 2,35:1
    Режим частоты кадров : Переменный
    Частота кадров : 0,003 кадр/сек
    Минимальная частота кадров : 0,002 кадр/сек
    Максимальная частота кадров : 0,006 кадр/сек
    Цветовое пространство : YUV
    Субдискретизация насыщенности : 4:2:0
    Битовая глубина : 8 бит
    Метод сжатия : С потерями
    Бит/(Пиксели*Кадры) : 1.849
    Размер потока : 587 Кбайт (0%)
    Заголовок : Chapter Images
    Язык : English
    Default : Нет
    Дата кодирования : UTC 2016-05-14 10:16:23
    Дата пометки : UTC 2016-05-14 10:16:23
    Menu For : 1
    Аудио #1
    Идентификатор : 2
    Формат : AAC
    Формат/Информация : Advanced Audio Codec
    Профиль формата : LC
    Идентификатор кодека : 40
    Продолжительность : 1 ч. 39 м.
    Вид битрейта : Переменный
    Битрейт : 132 Кбит/сек
    Максимальный битрейт : 224 Кбит/сек
    Каналы : 2 канала
    Расположение каналов : Front: L R
    Частота : 48,0 КГц
    Частота кадров : 46,875 кадров/сек (1024 spf)
    Метод сжатия : С потерями
    Размер потока : 93,6 Мбайт (3%)
    Заголовок : Russian MVO Stereo
    Язык : Russian
    Default : Да
    Alternate group : 1
    Дата кодирования : UTC 2016-05-14 10:13:32
    Дата пометки : UTC 2016-05-14 10:13:36
    Menus : 6
    Аудио #2
    Идентификатор : 3
    Формат : AAC
    Формат/Информация : Advanced Audio Codec
    Профиль формата : LC
    Идентификатор кодека : 40
    Продолжительность : 1 ч. 39 м.
    Вид битрейта : Переменный
    Битрейт : 124 Кбит/сек
    Максимальный битрейт : 226 Кбит/сек
    Каналы : 2 канала
    Расположение каналов : Front: L R
    Частота : 48,0 КГц
    Частота кадров : 46,875 кадров/сек (1024 spf)
    Метод сжатия : С потерями
    Размер потока : 88,7 Мбайт (3%)
    Заголовок : Ukrainian MVO Tak Treba Production Stereo
    Язык : Ukrainian
    Default : Нет
    Alternate group : 1
    Дата кодирования : UTC 2016-05-14 10:13:32
    Дата пометки : UTC 2016-05-14 10:13:36
    Аудио #3
    Идентификатор : 4
    Формат : AAC
    Формат/Информация : Advanced Audio Codec
    Профиль формата : LC
    Идентификатор кодека : 40
    Продолжительность : 1 ч. 39 м.
    Вид битрейта : Переменный
    Битрейт : 157 Кбит/сек
    Максимальный битрейт : 259 Кбит/сек
    Каналы : 2 канала
    Расположение каналов : Front: L R
    Частота : 48,0 КГц
    Частота кадров : 46,875 кадров/сек (1024 spf)
    Метод сжатия : С потерями
    Размер потока : 112 Мбайт (4%)
    Заголовок : English Stereo
    Язык : English
    Default : Нет
    Alternate group : 1
    Дата кодирования : UTC 2016-05-14 10:13:32
    Дата пометки : UTC 2016-05-14 10:16:19
    Текст
    Идентификатор : 5
    Формат : Timed Text
    Режим смешивания : sbtl
    Идентификатор кодека : tx3g
    Продолжительность : 1 ч. 35 м.
    Вид битрейта : Переменный
    Битрейт : 38 бит/сек
    Размер потока : 26,6 Кбайт (0%)
    Заголовок : English Subtitle
    Язык : English
    Default : Да
    Forced : Нет
    Alternate group : 2
    Дата кодирования : UTC 2016-05-14 10:13:32
    Дата пометки : UTC 2016-05-14 10:13:32
    Меню #1
    00:00:00.000 : 1
    00:03:03.000 : 2
    00:09:59.000 : 3
    00:16:10.000 : 4
    00:23:09.000 : 5
    00:30:21.000 : 6
    00:39:39.999 : 7
    00:45:28.000 : 8
    00:52:07.000 : 9
    01:00:58.000 : 10
    01:10:43.000 : 11
    01:15:20.000 : 12
    01:23:27.000 : 13
    01:30:42.000 : 14
    01:37:08.000 : 15
    Меню #2
    Идентификатор : 6
    Идентификатор кодека : text
    Продолжительность : 1 ч. 39 м.
    Заголовок : Chapter Titles
    Язык : English
    Дата кодирования : UTC 2016-05-14 10:16:19
    Дата пометки : UTC 2016-05-14 10:16:19
    Menu For : 2,1
    00:00:00.000 : 1
    00:03:03.000 : 2
    00:09:59.000 : 3
    00:16:10.000 : 4
    00:23:09.000 : 5
    00:30:21.000 : 6
    00:39:39.999 : 7
    00:45:28.000 : 8
    00:52:07.000 : 9
    01:00:58.000 : 10
    01:10:43.000 : 11
    01:15:20.000 : 12
    01:23:27.000 : 13
    01:30:42.000 : 14
    01:37:08.000 : 15
    Вид битрейта : VBR

    Скриншоты 720p Release



    -
    Цитата:
    Цитата:

    • За украінську доріжку велика подяка hurtom.
    -

    Релиз подготовлен для просмотра на Apple TV, iPad, iPhone, iPod Touch.
    Для просмотра данного релиза на компьютере с ОС Windows рекомендуется использовать VLC media player
    Скачать .torrent

    Скачать торрент-файл бесплатно и на максимальной скорости!

    Как скачивать? · Что такое торрент? · Рейтинг и ограничения

    !ВНИМАНИЕ!
    Сайт не распространяет и не хранит электронные версии произведений, а занимается лишь лишь предоставлением доступа к создаваемому пользователями каталогу ссылок на торрент-файлы, которые содержат только списки хеш-сумм, убедительная просьба с жалобами обращаться напрямую к пользователю. Файлы для обмена на трекере предоставлены пользователями сайта, и администрация не несёт ответственности за их содержание. Просьба не заливать файлы, защищенные авторскими правами, а также файлы нелегального содержания!


    _________________
    [Профиль] [ЛС]
    Показать сообщения:    
    Ответить на тему

    Текущее время: Сегодня, в 06:15

    Часовой пояс: GMT + 2



    Вы не можете начинать темы
    Вы не можете отвечать на сообщения
    Вы не можете редактировать свои сообщения
    Вы не можете удалять свои сообщения
    Вы не можете голосовать в опросах
    Вы не можете прикреплять файлы к сообщениям
    Вы не можете скачивать файлы