BitTorrentTracker PerecTracker.org
BitTorrentTracker PerecTracker.org
    
Регистрация  ·  Вход
 
 · 
Забыли пароль?

  • Падение Лондона / London Has Fallen (Бабак Наджафи / Babak Najafi) [2016, США, Боевик, триллер, драма, криминал, WEB-DLRip-AVC] [Локализованный видеоряд] Dub (iTunes)

    Ответить на тему
     
    Автор Сообщение

    rechyn

    Создавать темы 14-Май-2016 18:37

           

    [Цитировать]

    Падение Лондона / London Has Fallen
    «Приготовься к кровавому аду»
    -Год выхода: 2016
    Выпущено: США, Великобритания, Болгария / Millennium Films
    Жанр: боевик, триллер, драма, криминал
    Продолжительность: 01:38:24
    Перевод: Профессиональный (полное дублирование)
    Субтитры: нет-Режиссер:
    Бабак Наджафи / Babak Najafi-В ролях:
    Джерард Батлер, Аарон Экхарт, Морган Фриман, Алон Абутбул, Валид Зуэйтер, Адель Беншериф, Мехди Дехби, Шивани Гаи, Мартин Петрушев, Оуэн Дэвис, Майкл Уилдман, Рада Митчелл, Стэйси Шэйн, Пенни Дауни, Кларксон Гай Уильямс, Патрик Кеннеди, Колин Сэлмон, Анджела Бассетт, Дебора Грант, Эндрю Плевин-О фильме:
    Действие фильма начинается в Лондоне, где премьер-министр Великобритании погибает при загадочных обстоятельствах. На похоронах безусловно присутствуют руководители западного мира. Но то, что начиналось как наиболее безопасное событие на земле, превращается в опаснейшее покушение на самых мощных мировых лидеров, что в свою очередь ставит под угрозу будущее всего мира. Только три человека сохраняют надежду на предотвращение катастрофы: президент США, его верный помощник — агент спецслужбы и английский агент МИ-6, который никому не доверяет.-Релиз групп
    | | IMDB | КиноПоиск | Сэмпл |-Качество: WEB-DLRip-AVC [London.Has.Fallen.2016.1080p.WEB-DL.Rus.HDCLUB]
    Формат: MKV
    Видео: 1072x448 (2:40:1), 23.976 fps, x264 ~1727 kbps avg, 0.150 bit/pixel
    Аудио: 48 kHz, AC3 Dolby Digital, 3/2 (L,C,R,l,r) + LFE ch, ~384 kbps - iTunes Russia-

    Скриншоты

    -

    MediaInfo

    General
    Complete name                            : D:\Padenie_Londona_2016_WEB-DLRip-AVC_by_Dalemake.mkv
    Format                                   : Matroska
    Format version                           : Version 2
    File size                                : 1.45 GiB
    Duration                                 : 1h 38mn
    Overall bit rate                         : 2 109 Kbps
    Encoded date                             : UTC 2016-05-14 01:18:44
    Writing application                      : mkvmerge v7.8.0 ('River Man') 32bit built on Apr  3 2015 12:11:22
    Writing library                          : libebml v1.3.1 + libmatroska v1.4.2
    Video
    ID                                       : 1
    Format                                   : AVC
    Format/Info                              : Advanced Video Codec
    Format profile                           : High@L4.1
    Format settings, CABAC                   : Yes
    Format settings, ReFrames                : 10 frames
    Codec ID                                 : V_MPEG4/ISO/AVC
    Duration                                 : 1h 38mn
    Bit rate                                 : 1 727 Kbps
    Width                                    : 1 072 pixels
    Height                                   : 448 pixels
    Display aspect ratio                     : 2.40:1
    Frame rate mode                          : Constant
    Frame rate                               : 24.000 fps
    Color space                              : YUV
    Chroma subsampling                       : 4:2:0
    Bit depth                                : 8 bits
    Scan type                                : Progressive
    Bits/(Pixel*Frame)                       : 0.150
    Stream size                              : 1.16 GiB (80%)
    Writing library                          : x264 core 146 r2538 121396c
    Encoding settings                        : cabac=1 / ref=10 / deblock=1:-2:-1 / analyse=0x3:0x133 / me=umh / subme=11 / psy=1 / psy_rd=1.00:0.00 / mixed_ref=1 / me_range=32 / chroma_me=1 / trellis=2 / 8x8dct=1 / cqm=0 / deadzone=21,11 / fast_pskip=1 / chroma_qp_offset=-4 / threads=6 / lookahead_threads=1 / sliced_threads=0 / nr=0 / decimate=0 / interlaced=0 / bluray_compat=0 / constrained_intra=0 / bframes=9 / b_pyramid=2 / b_adapt=2 / b_bias=0 / direct=3 / weightb=1 / open_gop=0 / weightp=2 / keyint=250 / keyint_min=23 / scenecut=40 / intra_refresh=0 / rc_lookahead=60 / rc=2pass / mbtree=0 / bitrate=1727 / ratetol=1.0 / qcomp=0.60 / qpmin=0 / qpmax=69 / qpstep=4 / cplxblur=20.0 / qblur=0.5 / vbv_maxrate=50000 / vbv_bufsize=62500 / nal_hrd=none / filler=0 / ip_ratio=1.35 / pb_ratio=1.30 / aq=1:1.00
    Default                                  : Yes
    Forced                                   : No
    Audio
    ID                                       : 2
    Format                                   : AC-3
    Format/Info                              : Audio Coding 3
    Mode extension                           : CM (complete main)
    Format settings, Endianness              : Big
    Codec ID                                 : A_AC3
    Duration                                 : 1h 38mn
    Bit rate mode                            : Constant
    Bit rate                                 : 384 Kbps
    Channel(s)                               : 6 channels
    Channel positions                        : Front: L C R, Side: L R, LFE
    Sampling rate                            : 48.0 KHz
    Frame rate                               : 31.250 fps (1536 spf)
    Compression mode                         : Lossy
    Stream size                              : 270 MiB (18%)
    Default                                  : Yes
    Forced                                   : No
    -
    Скачать .torrent

    Скачать торрент-файл бесплатно и на максимальной скорости!

    Как скачивать? · Что такое торрент? · Рейтинг и ограничения

    !ВНИМАНИЕ!
    Сайт не распространяет и не хранит электронные версии произведений, а занимается лишь лишь предоставлением доступа к создаваемому пользователями каталогу ссылок на торрент-файлы, которые содержат только списки хеш-сумм, убедительная просьба с жалобами обращаться напрямую к пользователю. Файлы для обмена на трекере предоставлены пользователями сайта, и администрация не несёт ответственности за их содержание. Просьба не заливать файлы, защищенные авторскими правами, а также файлы нелегального содержания!


    _________________
    [Профиль] [ЛС]
    Показать сообщения:    
    Ответить на тему

    Текущее время: Сегодня, в 17:41

    Часовой пояс: GMT + 2



    Вы не можете начинать темы
    Вы не можете отвечать на сообщения
    Вы не можете редактировать свои сообщения
    Вы не можете удалять свои сообщения
    Вы не можете голосовать в опросах
    Вы не можете прикреплять файлы к сообщениям
    Вы не можете скачивать файлы