BitTorrentTracker PerecTracker.org
BitTorrentTracker PerecTracker.org
    
Регистрация  ·  Вход
 
 · 
Забыли пароль?

  • Падение Лондона / London Has Fallen (Бабак Наджафи) [2016, США, Великобритания, Болгария, боевик, триллер, драма, криминал, WEB-DL HD (1080p, 720p)] DUB

    Ответить на тему
     
    Автор Сообщение

    rechyn

    Создавать темы 14-Май-2016 14:32

           

    [Цитировать]

    Падение Лондона / London Has Fallen
    "Приготовься к кровавому аду"
    5.897 / 10
    -Год выпуска: 2016
    Страна: США, Великобритания, Болгария
    Жанр: боевик, триллер, драма, криминал
    Продолжительность: 100 мин.
    Перевод: Профессиональный дублированный перевод
    Оригинальная аудиодорожка: Есть
    Cубтитры: Нет
    Режиссёр: Бабак Наджафи
    Сценарий: Крейтон Ротенбергер, Кэтрин Бенедикт, Кристиан Гьюдгэст
    Продюсер: Джерард Батлер, Марк Гилл, Дэнни Лернер
    Оператор: Эд Вайлд
    Композитор: Тревор Моррис
    Художник: Джоэль Коллинз, Кэролайн Барклай, Кес Бонне
    Монтаж: Майкл Дж. Дути, Пол Мартин Смит
    В ролях: Джерард Батлер, Аарон Экхарт, Морган Фриман, Алон Абутбул, Валид Зуэйтер, Адель Беншериф, Мехди Дехби, Шивани Гаи, Мартин Петрушев, Оуэн Дэвис
    Роли дублировали: Сергей Чихачев
    Бюджет: $60 000 000
    Сборы в США: $62 107 737
    Сборы в мире: + $129 312 845 = $191 420 582
    Сборы в России: $2 277 367
    Мировая премьера: 1 марта 2016
    Премьера (РФ): 17 марта 2016, Парадиз
    Релиз на Blu-Ray: 11 июля 2016, Парадиз Медиа
    Релиз на DVD: 11 июля 2016, Парадиз Медиа
    Описание: Действие фильма начинается в Лондоне, где премьер-министр Великобритании погибает при загадочных обстоятельствах. На похоронах безусловно присутствуют руководители западного мира. Но то, что начиналось как наиболее безопасное событие на земле, превращается в опаснейшее покушение на самых мощных мировых лидеров, что в свою очередь ставит под угрозу будущее всего мира. Только три человека сохраняют надежду на предотвращение катастрофы: президент США, его верный помощник - агент спецслужбы и английский агент МИ-6, который никому не доверяет.-Качество исходника: WEB-DL (iTunes Russia)
    Качество: WEB-DL
    Тип: 720p 1080p
    Контейнер: m4v
    Видео: 1280x536 at 24.000 fps, MPEG-4 AVC, ~4200 kbps avg
    Видео: 1920x804 at 24.000 fps, MPEG-4 AVC, ~4400 kbps avg
    Аудио#1: Russian: 48 kHz, ААС, 2/0 (L,R), ~160.00 kbps avg |Дубляж, iTunes Russia|
    Аудио#2: Russian: 48 kHz, AC3, 3/2 (L,C,R,l,r) + LFE ch, ~384.00 kbps avg |Дубляж, iTunes Russia|-

    Знаете ли Вы, что...

    • Когда Фредрик Бонд ушёл с должности режиссёра в проекте, в качестве замены ему рассматривались кандидатуры Уэйна Блэра, Гэри Фледера и Бабака Наджафи. В конце концов режиссёром стал Наджафи.
    • В Венгрии фильм «Падение Олимпа» (2013) вышел в прокат под названием «Нападение на Белый дом». «Падение Лондона» на самом деле носит название «Нападение на Белый дом: Лондон в осаде».
    • Режиссёр фильма «Падение Олимпа» (2013) Антуан Фукуа отказался снимать это продолжение потому, что ему не понравился сценарий.
    • Режиссёром фильма вначале был назначен Фредрик Бонд, однако он покинул проект из-за творческих разногласий с продюсерами.
    • В трейлере к фильму можно услышать композицию «London Bridge» в медленной фортепианной аранжировке.
    • Изначально премьера фильма планировалась на октябрь 2015 года, но была перенесена на март 2016 года.
    • Действие фильма происходит три года спустя после событий, о которых рассказывалось в фильме «Падение Олимпа» (2013).

    -

    iTunes Meta Tags for country ru

    Name: Падение Лондона
    Artist: Бабак Наджафи
    Genre: Action & Adventure
    Release Date: 2016-03-01T08:00:00Z
    Description: Действие фильма начинается в Лондоне, где премьер-министр Великобритании погибает при загадочных обстоятельствах. На похоронах безусловно присутствуют руководители западного мира. Но то, что начиналось как наиболее безопасное событие на земле, превращается в опаснейшее покушение на самых мощных мировых лидеров, что в свою очередь ставит под угрозу будущее всего мира...
    Long Description: Действие фильма начинается в Лондоне, где премьер-министр Великобритании погибает при загадочных обстоятельствах. На похоронах безусловно присутствуют руководители западного мира. Но то, что начиналось как наиболее безопасное событие на земле, превращается в опаснейшее покушение на самых мощных мировых лидеров, что в свою очередь ставит под угрозу будущее всего мира. Только три человека сохраняют надежду на предотвращение катастрофы: президент США, его верный помощник - агент спецслужбы и английский агент МИ-6, который никому не доверяет.
    Rating: 16+
    Studio: Gerard Butler Alan Siegel Entertainment, LHF Film, Millennium Films
    Cast: Джерард Батлер, Аарон Экхарт, Морган Фриман, Алон Абутбул, Валид Зуэйтер, Адель Беншериф, Мехди Дехби, Шивани Гаи, Мартин Петрушев, Оуэн Дэвис
    Director: Бабак Наджафи
    Producers: Джерард Батлер, Марк Гилл, Дэнни Лернер
    Screenwriters: Крейтон Ротенбергер, Кэтрин Бенедикт, Кристиан Гьюдгэст
    Copyright: © 2016 Paradise
    contentID: 1092902858
    XID: Apple:vendor_id:2016-806977
    Sort Name: Падение Лондона

    iTunes Meta Tags for country us

    Name: London Has Fallen
    Artist: Babak Najafi
    Genre: Action & Adventure
    Release Date: 2016-03-01T08:00:00Z
    Description: Действие фильма начинается в Лондоне, где премьер-министр Великобритании погибает при загадочных обстоятельствах. На похоронах безусловно присутствуют руководители западного мира. Но то, что начиналось как наиболее безопасное событие на земле, превращается в опаснейшее покушение на самых мощных мировых лидеров, что в свою очередь ставит под угрозу будущее всего мира...
    Long Description: Действие фильма начинается в Лондоне, где премьер-министр Великобритании погибает при загадочных обстоятельствах. На похоронах безусловно присутствуют руководители западного мира. Но то, что начиналось как наиболее безопасное событие на земле, превращается в опаснейшее покушение на самых мощных мировых лидеров, что в свою очередь ставит под угрозу будущее всего мира. Только три человека сохраняют надежду на предотвращение катастрофы: президент США, его верный помощник - агент спецслужбы и английский агент МИ-6, который никому не доверяет.
    Rating: R
    Rating Annotation: Rated R for strong violence and language throughout.
    Studio: Gramercy Pictures
    Cast: Джерард Батлер, Аарон Экхарт, Морган Фриман, Алон Абутбул, Валид Зуэйтер, Адель Беншериф, Мехди Дехби, Шивани Гаи, Мартин Петрушев, Оуэн Дэвис
    Director: Бабак Наджафи
    Producers: Джерард Батлер, Марк Гилл, Дэнни Лернер
    Screenwriters: Крейтон Ротенбергер, Кэтрин Бенедикт, Кристиан Гьюдгэст
    Copyright: © 2016 Focus Features. All Rights Reserved.
    contentID: 1083794877
    XID: Apple:vendor_id:2016-806977
    Sort Name: London Has Fallen

    MediaInfo 720p Release

    Общее
    Полное имя : London Has Fallen (HD).m4v
    Формат : MPEG-4
    Идентификатор кодека : M4V  (M4V /M4A /mp42/isom)
    Размер файла : 3,28 Гбайт
    Продолжительность : 1 ч. 38 м.
    Режим общего битрейта : Переменный
    Общий поток : 4777 Кбит/сек
    Название фильма : London Has Fallen
    Исполнитель : Babak Najafi
    Режиссёр : Бабак Наджафи
    Исполнитель : Джерард Батлер / Аарон Экхарт / Морган Фриман / Алон Абутбул / Валид Зуэйтер / Адель Беншериф / Мехди Дехби / Шивани Гаи / Мартин Петрушев / Оуэн Дэвис
    Сценарист : Крейтон Ротенбергер / Кэтрин Бенедикт / Кристиан Гьюдгэст
    Продюсер : Джерард Батлер / Марк Гилл / Дэнни Лернер
    Студия-производитель : Gramercy Pictures
    Жанр : Action & Adventure
    Тип содержимого : Short Film
    Описание : Действие фильма начинается в Лондоне, где премьер-министр Великобритании погибает при загадочных обстоятельствах. На похоронах безусловно присутствуют руководители западного мира. Но то, что начиналось как наиболее безопасное событие на земле, превращается в опаснейшее покушение на самых мощных мировых лидеров, что в свою очередь ставит под угрозу будущее всего мира...
    Дата записи : UTC 2016-03-01 08:00:00
    Дата кодирования : UTC 2016-05-14 09:22:35
    Дата пометки : UTC 2016-05-14 09:52:50
    Авторское право : © 2016 Focus Features. All Rights Reserved.
    Обложка : Yes
    Оценка : None
    Title/Sort : London Has Fallen
    LongDescription : Действие фильма начинается в Лондоне, где премьер-министр Великобритании погибает при загадочных обстоятельствах. На похоронах безусловно присутствуют руководители западного мира. Но то, что начиналось как наиболее безопасное событие на земле, превращается в опаснейшее покушение на самых мощных мировых лидеров, что в свою очередь ставит под угрозу будущее всего мира. Только три человека сохраняют надежду на предотвращение катастрофы: президент США, его верный помощник - агент спецслужбы и английский агент МИ-6, который никому не доверяет.
    HDVideo : Yes
    AppleStoreCatalogID : 1083794877
    Vendor : Apple:vendor_id:2016-806977
    ContentRating : mpaa|R|400|Rated R for strong violence and language throughout.
    Видео
    Идентификатор : 1
    Формат : AVC
    Формат/Информация : Advanced Video Codec
    Профиль формата : Main@L3.1
    Параметр CABAC формата : Нет
    Параметр ReFrames формата : 2 кадра
    Параметр GOP формата : M=2, N=90
    Идентификатор кодека : avc1
    Идентификатор кодека/Информация : Advanced Video Coding
    Продолжительность : 1 ч. 38 м.
    Битрейт : 4220 Кбит/сек
    Ширина : 1280 пикселей
    Высота : 536 пикселей
    Соотношение сторон : 2,40:1
    Режим частоты кадров : Переменный
    Частота кадров : 24,000 кадра/сек
    Минимальная частота кадров : 23,810 кадра/сек
    Максимальная частота кадров : 24,390 кадра/сек
    Цветовое пространство : YUV
    Субдискретизация насыщенности : 4:2:0
    Битовая глубина : 8 бит
    Тип развёртки : Прогрессивная
    Бит/(Пиксели*Кадры) : 0.256
    Размер потока : 2,90 Гбайт (88%)
    Заголовок : Main Program
    Язык : English
    Дата кодирования : UTC 2016-05-14 09:22:35
    Дата пометки : UTC 2016-05-14 09:30:25
    Цветовой диапазон : Limited
    Основные цвета : BT.709
    Характеристики трансфера : BT.709
    Коэффициенты матрицы : BT.709
    Аудио #1
    Идентификатор : 2
    Формат : AAC
    Формат/Информация : Advanced Audio Codec
    Профиль формата : LC
    Идентификатор кодека : 40
    Продолжительность : 1 ч. 38 м.
    Вид битрейта : Переменный
    Битрейт : 164 Кбит/сек
    Максимальный битрейт : 236 Кбит/сек
    Каналы : 2 канала
    Расположение каналов : Front: L R
    Частота : 48,0 КГц
    Частота кадров : 46,875 кадров/сек (1024 spf)
    Метод сжатия : С потерями
    Размер потока : 116 Мбайт (3%)
    Заголовок : Russian DUB from iTunes Stereo
    Язык : Russian
    Default : Да
    Alternate group : 1
    Дата кодирования : UTC 2016-05-14 09:22:35
    Дата пометки : UTC 2016-05-14 09:22:39
    Fallback From : 3
    Аудио #2
    Идентификатор : 3
    Формат : AC-3
    Формат/Информация : Audio Coding 3
    Расширение режима : CM (complete main)
    Параметр Endianness формата : Big
    Идентификатор кодека : ac-3
    Продолжительность : 1 ч. 38 м.
    Вид битрейта : Постоянный
    Битрейт : 384 Кбит/сек
    Каналы : 6 каналов
    Расположение каналов : Front: L C R, Side: L R, LFE
    Частота : 48,0 КГц
    Частота кадров : 31,250 кадров/сек (1536 spf)
    Битовая глубина : 16 бит
    Метод сжатия : С потерями
    Размер потока : 270 Мбайт (8%)
    Заголовок : Russian DUB from iTunes DD 5.1
    Язык : Russian
    Default : Inherited From: 2
    Alternate group : 1
    Дата кодирования : UTC 2016-05-14 09:22:35
    Дата пометки : UTC 2016-05-14 09:30:25
    Fallback To : 2

    MediaInfo 1080p Release

    Общее
    Полное имя : London Has Fallen (1080p HD).m4v
    Формат : MPEG-4
    Идентификатор кодека : M4V  (M4V /M4A /mp42/isom)
    Размер файла : 3,40 Гбайт
    Продолжительность : 1 ч. 38 м.
    Режим общего битрейта : Переменный
    Общий поток : 4944 Кбит/сек
    Название фильма : London Has Fallen
    Исполнитель : Babak Najafi
    Режиссёр : Бабак Наджафи
    Исполнитель : Джерард Батлер / Аарон Экхарт / Морган Фриман / Алон Абутбул / Валид Зуэйтер / Адель Беншериф / Мехди Дехби / Шивани Гаи / Мартин Петрушев / Оуэн Дэвис
    Сценарист : Крейтон Ротенбергер / Кэтрин Бенедикт / Кристиан Гьюдгэст
    Продюсер : Джерард Батлер / Марк Гилл / Дэнни Лернер
    Студия-производитель : Gramercy Pictures
    Жанр : Action & Adventure
    Тип содержимого : Short Film
    Описание : Действие фильма начинается в Лондоне, где премьер-министр Великобритании погибает при загадочных обстоятельствах. На похоронах безусловно присутствуют руководители западного мира. Но то, что начиналось как наиболее безопасное событие на земле, превращается в опаснейшее покушение на самых мощных мировых лидеров, что в свою очередь ставит под угрозу будущее всего мира...
    Дата записи : UTC 2016-03-01 08:00:00
    Дата кодирования : UTC 2016-05-14 09:22:15
    Дата пометки : UTC 2016-05-14 09:52:33
    Авторское право : © 2016 Focus Features. All Rights Reserved.
    Обложка : Yes
    Оценка : None
    Title/Sort : London Has Fallen
    LongDescription : Действие фильма начинается в Лондоне, где премьер-министр Великобритании погибает при загадочных обстоятельствах. На похоронах безусловно присутствуют руководители западного мира. Но то, что начиналось как наиболее безопасное событие на земле, превращается в опаснейшее покушение на самых мощных мировых лидеров, что в свою очередь ставит под угрозу будущее всего мира. Только три человека сохраняют надежду на предотвращение катастрофы: президент США, его верный помощник - агент спецслужбы и английский агент МИ-6, который никому не доверяет.
    AppleStoreCatalogID : 1083794877
    Vendor : Apple:vendor_id:2016-806977
    ContentRating : mpaa|R|400|Rated R for strong violence and language throughout.
    Видео
    Идентификатор : 1
    Формат : AVC
    Формат/Информация : Advanced Video Codec
    Профиль формата : High@L4
    Параметр CABAC формата : Да
    Параметр ReFrames формата : 5 кадров
    Параметр GOP формата : N=1
    Идентификатор кодека : avc1
    Идентификатор кодека/Информация : Advanced Video Coding
    Продолжительность : 1 ч. 38 м.
    Битрейт : 4387 Кбит/сек
    Ширина : 1920 пикселей
    Высота : 804 пикселя
    Соотношение сторон : 2,40:1
    Режим частоты кадров : Переменный
    Частота кадров : 24,000 кадра/сек
    Минимальная частота кадров : 23,810 кадра/сек
    Максимальная частота кадров : 24,390 кадра/сек
    Цветовое пространство : YUV
    Субдискретизация насыщенности : 4:2:0
    Битовая глубина : 8 бит
    Тип развёртки : Прогрессивная
    Бит/(Пиксели*Кадры) : 0.118
    Размер потока : 3,02 Гбайт (89%)
    Заголовок : Main Program
    Язык : English
    Дата кодирования : UTC 2016-05-14 09:22:15
    Дата пометки : UTC 2016-05-14 09:30:07
    Цветовой диапазон : Limited
    Основные цвета : BT.709
    Характеристики трансфера : BT.709
    Коэффициенты матрицы : BT.709
    Аудио #1
    Идентификатор : 2
    Формат : AAC
    Формат/Информация : Advanced Audio Codec
    Профиль формата : LC
    Идентификатор кодека : 40
    Продолжительность : 1 ч. 38 м.
    Вид битрейта : Переменный
    Битрейт : 164 Кбит/сек
    Максимальный битрейт : 236 Кбит/сек
    Каналы : 2 канала
    Расположение каналов : Front: L R
    Частота : 48,0 КГц
    Частота кадров : 46,875 кадров/сек (1024 spf)
    Метод сжатия : С потерями
    Размер потока : 116 Мбайт (3%)
    Заголовок : Russian DUB from iTunes Stereo
    Язык : Russian
    Default : Да
    Alternate group : 1
    Дата кодирования : UTC 2016-05-14 09:22:15
    Дата пометки : UTC 2016-05-14 09:22:19
    Fallback From : 3
    Аудио #2
    Идентификатор : 3
    Формат : AC-3
    Формат/Информация : Audio Coding 3
    Расширение режима : CM (complete main)
    Параметр Endianness формата : Big
    Идентификатор кодека : ac-3
    Продолжительность : 1 ч. 38 м.
    Вид битрейта : Постоянный
    Битрейт : 384 Кбит/сек
    Каналы : 6 каналов
    Расположение каналов : Front: L C R, Side: L R, LFE
    Частота : 48,0 КГц
    Частота кадров : 31,250 кадров/сек (1536 spf)
    Битовая глубина : 16 бит
    Метод сжатия : С потерями
    Размер потока : 270 Мбайт (8%)
    Заголовок : Russian DUB from iTunes DD 5.1
    Язык : Russian
    Default : Inherited From: 2
    Alternate group : 1
    Дата кодирования : UTC 2016-05-14 09:22:15
    Дата пометки : UTC 2016-05-14 09:30:07
    Fallback To : 2

    Скриншоты 720p Release

    Скриншоты 1080p Release

    -

    Релиз подготовлен для просмотра на Apple TV, iPad, iPhone, iPod Touch.
    Для просмотра данного релиза на компьютере с ОС Windows рекомендуется использовать VLC media player
    Скачать .torrent

    Скачать торрент-файл бесплатно и на максимальной скорости!

    Как скачивать? · Что такое торрент? · Рейтинг и ограничения

    !ВНИМАНИЕ!
    Сайт не распространяет и не хранит электронные версии произведений, а занимается лишь лишь предоставлением доступа к создаваемому пользователями каталогу ссылок на торрент-файлы, которые содержат только списки хеш-сумм, убедительная просьба с жалобами обращаться напрямую к пользователю. Файлы для обмена на трекере предоставлены пользователями сайта, и администрация не несёт ответственности за их содержание. Просьба не заливать файлы, защищенные авторскими правами, а также файлы нелегального содержания!


    _________________
    [Профиль] [ЛС]
    Показать сообщения:    
    Ответить на тему

    Текущее время: Сегодня, в 16:29

    Часовой пояс: GMT + 2



    Вы не можете начинать темы
    Вы не можете отвечать на сообщения
    Вы не можете редактировать свои сообщения
    Вы не можете удалять свои сообщения
    Вы не можете голосовать в опросах
    Вы не можете прикреплять файлы к сообщениям
    Вы не можете скачивать файлы