BitTorrentTracker PerecTracker.org
BitTorrentTracker PerecTracker.org
    
Регистрация  ·  Вход
 
 · 
Забыли пароль?

  • Время не ждет / Time Rush (Дэниэл Дзирилли / Daniel Zirilli) [2016, США / Pop/Art Film Factory, Stunt Power Films, Боевик,драма, HDRip] AVO ([datynet])

    Ответить на тему
     
    Автор Сообщение

    rechyn

    Создавать темы 14-Май-2016 10:27

           

    [Цитировать]

    Время не ждет / Time Rush
    Страна: США / Pop/Art Film Factory, Stunt Power Films
    Жанр: Боевик,драма
    Год выпуска: 2016
    Продолжительность: 01:25:07
    Перевод: Одноголосый (закадровый) [datynet]
    Cубтитры: нет
    Режиссер: Дэниэл Дзирилли / Daniel Zirilli
    В ролях: HХари Дас Ахатефу, Дин Александру, Майкл Эстон, Срисуван Асучевакамнжон, Нуттакан Буннджавай, Дэвид Буено
    Описание: Алекс застрял в повторяющейся петле времени, он должен узнать правду, прокладывая свой путь через шумные улицы Бангкока и убегать от загадочных людей, которые хотят убить его. Погони и перестрелки,жесткие поединки с полицейскими,потери близких людей ... это не весь перечень того,через что придется пройти Алексу.
    Сэмпл: http://multi-up.com/1101361
    Качество видео: HDRip
    Формат видео: AVI
    Видео: XviD 73, 720x400, (16:9), 23,976 fps, 1867 Кбит/с, 8 бит
    Аудио: Русский (AC-3, 2 ch (Front: L R), 48,0 KHz, 448 Kbps)

    MediaInfo

    Общее
    Полное имя : F:\Видеофильмы\В и д е о\Время не ждет (супербоевик 2016 год).avi
    Формат : AVI
    Формат/Информация : Audio Video Interleave
    Размер файла : 1,38 Гбайт
    Продолжительность : 1 ч. 25 м.
    Общий поток : 2324 Кбит/сек
    Программа кодирования : VirtualDubMod 1.5.10.3 | www.virtualdub-fr.org || (build 2550/release)
    Библиотека кодирования : VirtualDubMod build 2550/release
    Видео
    Идентификатор : 0
    Формат : MPEG-4 Visual
    Профиль формата : Advanced Simple@L5
    Параметр BVOP формата : 2
    Параметр QPel формата : Нет
    Параметр GMC формата : Без точки перехода
    Параметр матрицы формата : Default (H.263)
    Идентификатор кодека : XVID
    Идентификатор кодека/Подсказка : XviD
    Продолжительность : 1 ч. 25 м.
    Битрейт : 1867 Кбит/сек
    Ширина : 720 пикселей
    Высота : 400 пикселей
    Соотношение сторон : 16:9
    Частота кадров : 23,976 (23976/1000) кадра/сек
    Цветовое пространство : YUV
    Субдискретизация насыщенности : 4:2:0
    Битовая глубина : 8 бит
    Тип развёртки : Прогрессивная
    Метод сжатия : С потерями
    Бит/(Пиксели*Кадры) : 0.270
    Размер потока : 1,11 Гбайт (80%)
    Библиотека кодирования : XviD 73
    Аудио
    Идентификатор : 1
    Формат : AC-3
    Формат/Информация : Audio Coding 3
    Расширение режима : CM (complete main)
    Параметр Endianness формата : Big
    Идентификатор кодека : 2000
    Продолжительность : 1 ч. 25 м.
    Вид битрейта : Постоянный
    Битрейт : 448 Кбит/сек
    Каналы : 2 канала
    Расположение каналов : Front: L R
    Частота : 48,0 КГц
    Частота кадров : 31,250 кадров/сек (1536 spf)
    Метод сжатия : С потерями
    Размер потока : 273 Мбайт (19%)
    Выравнивание : Разделение по промежуткам
    Продолжительность промежутка : 42 мс. (1,00 видеокадр)
    Время предзагрузки промежутка : 500 мс.

    Скриншот c названием фильма

    Скриншоты

    Скачать .torrent

    Скачать торрент-файл бесплатно и на максимальной скорости!

    Как скачивать? · Что такое торрент? · Рейтинг и ограничения

    !ВНИМАНИЕ!
    Сайт не распространяет и не хранит электронные версии произведений, а занимается лишь лишь предоставлением доступа к создаваемому пользователями каталогу ссылок на торрент-файлы, которые содержат только списки хеш-сумм, убедительная просьба с жалобами обращаться напрямую к пользователю. Файлы для обмена на трекере предоставлены пользователями сайта, и администрация не несёт ответственности за их содержание. Просьба не заливать файлы, защищенные авторскими правами, а также файлы нелегального содержания!


    _________________
    [Профиль] [ЛС]
    Показать сообщения:    
    Ответить на тему

    Текущее время: Сегодня, в 10:09

    Часовой пояс: GMT + 2



    Вы не можете начинать темы
    Вы не можете отвечать на сообщения
    Вы не можете редактировать свои сообщения
    Вы не можете удалять свои сообщения
    Вы не можете голосовать в опросах
    Вы не можете прикреплять файлы к сообщениям
    Вы не можете скачивать файлы