BitTorrentTracker PerecTracker.org
BitTorrentTracker PerecTracker.org
    
Регистрация  ·  Вход
 
 · 
Забыли пароль?

  • Учитель английского / The English Teacher (Крейг Зиск / Craig Zisk) [2012, США, мелодрама, комедия, HDRip] MVO (Лицензия)

    Ответить на тему
     
    Автор Сообщение

    Columb

    Создавать темы 16-Фев-2014 10:59

           

    [Цитировать]

    -Учитель английского / The English Teacher-Страна: США
    Жанр: мелодрама, комедия
    Год выпуска: 2012
    Продолжительность: 01:31:46-Перевод: Профессиональный (многоголосый закадровый) - Лицензия
    Cубтитры: нет-Режиссер: Крейг Зиск / Craig Zisk-В ролях: Джулианна Мур, Майкл Ангарано, Грег Киннер, Лили Коллинз, Фиона Шоу, Норберт Лео Батц, Джессика Хехт, Чарли Сэкстон, Нэйтан Лейн, Никки Блонски-Описание: Линда, одинокая учительница английского языка в маленьком городке Кингстон, всю жизнь работает в школе, очень любит свой предмет, но в личной жизни у нее не все так радужно. Жизнь Линды кардинально меняется, когда ее бывший ученик Джейсон возвращается из Нью-Йорка в свой маленький городок после неудачной попытки поставить там свою пьесу. И теперь Линда всеми силами будет стараться помочь Джейсону как можно быстрее стать успешным драматургом…
    kinopoisk.ru =>-Сэмпл: http://multi-up.com/951596-Качество видео: HDRip [исходник: BDRip 720p]
    Формат видео: AVI
    Видео: 688x288 (2.39:1), 23.976 fps, XviD build 73 ~996 kbps avg, 0.21 bit/pixel
    Аудио: 48 kHz, MPEG Layer 3, 2 ch, ~128.00 kbps avg

    MediaInfo

    Общее
    Полное имя                               : D:\Uchitel.anglijskogo.2012_HDRip.avi
    Формат                                   : AVI
    Формат/Информация                        : Audio Video Interleave
    Размер файла                             : 744 Мбайт
    Продолжительность                        : 1 ч. 31 м.
    Общий поток                              : 1134 Кбит/сек
    Программа кодирования                    : VirtualDubMod 1.5.10.3 | www.virtualdub-fr.org || (build 2550/release)
    Библиотека кодирования                   : VirtualDubMod build 2550/release
    Видео
    Идентификатор                            : 0
    Формат                                   : MPEG-4 Visual
    Профиль формата                          : Advanced Simple@L5
    Параметр BVOP формата                    : 1
    Параметр QPel формата                    : Нет
    Параметр GMC формата                     : Без точки перехода
    Параметр матрицы формата                 : Выборочная
    Идентификатор кодека                     : XVID
    Идентификатор кодека/Подсказка           : XviD
    Продолжительность                        : 1 ч. 31 м.
    Битрейт                                  : 997 Кбит/сек
    Ширина                                   : 688 пикселей
    Высота                                   : 288 пикселей
    Соотношение сторон                       : 2,40:1
    Частота кадров                           : 23,976 кадра/сек
    Цветовое пространство                    : YUV
    Субдискретизация насыщенности            : 4:2:0
    Битовая глубина                          : 8 бит
    Тип развёртки                            : Прогрессивная
    Метод сжатия                             : С потерями
    Бит/(Пиксели*Кадры)                      : 0.210
    Размер потока                            : 654 Мбайт (88%)
    Библиотека кодирования                   : XviD 73
    Аудио
    Идентификатор                            : 1
    Формат                                   : MPEG Audio
    Версия формата                           : Version 1
    Профиль формата                          : Layer 3
    Идентификатор кодека                     : 55
    Идентификатор кодека/Подсказка           : MP3
    Продолжительность                        : 1 ч. 31 м.
    Вид битрейта                             : Постоянный
    Битрейт                                  : 128 Кбит/сек
    Каналы                                   : 2 канала
    Частота                                  : 48,0 КГц
    Метод сжатия                             : С потерями
    Размер потока                            : 84,0 Мбайт (11%)
    Выравнивание                             : Соединение по промежуткам
    Продолжительность промежутка             : 42  мс. (1,00 видеокадр)
    Время предзагрузки промежутка            : 504  мс.
    Библиотека кодирования                   : LAME3.99r
    Настройки программы                      : -m s -V 4 -q 2 -lowpass 17 -b 128

    Скриншот c названием фильма

    Скриншоты

    Скачать .torrent

    Скачать торрент-файл бесплатно и на максимальной скорости!

    Как скачивать? · Что такое торрент? · Рейтинг и ограничения

    !ВНИМАНИЕ!
    Сайт не распространяет и не хранит электронные версии произведений, а занимается лишь лишь предоставлением доступа к создаваемому пользователями каталогу ссылок на торрент-файлы, которые содержат только списки хеш-сумм, убедительная просьба с жалобами обращаться напрямую к пользователю. Файлы для обмена на трекере предоставлены пользователями сайта, и администрация не несёт ответственности за их содержание. Просьба не заливать файлы, защищенные авторскими правами, а также файлы нелегального содержания!

    [Профиль] [ЛС]
    Показать сообщения:    
    Ответить на тему

    Текущее время: Сегодня, в 08:16

    Часовой пояс: GMT + 2



    Вы не можете начинать темы
    Вы не можете отвечать на сообщения
    Вы не можете редактировать свои сообщения
    Вы не можете удалять свои сообщения
    Вы не можете голосовать в опросах
    Вы не можете прикреплять файлы к сообщениям
    Вы не можете скачивать файлы