BitTorrentTracker PerecTracker.org
BitTorrentTracker PerecTracker.org
    
Регистрация  ·  Вход
 
 · 
Забыли пароль?

  • Хора 79 / Hora 79 (Эли Коэн / Eli Cohen) [2013, Израиль, музыкальная трагикомедия, SATRip] Sub Rus + Original Heb

    Ответить на тему
     
    Автор Сообщение

    Light

    Создавать темы 14-Май-2016 06:22

           

    [Цитировать]

    Хора 79 / Hora 79
    Страна: Израиль
    Жанр: музыкальная трагикомедия
    Год выпуска: 2013
    Продолжительность: 01:27:51
    Перевод: Субтитры
    Cубтитры: русские
    Оригинальная аудиодорожка: иврит
    Режиссер: Эли Коэн / Eli Cohen
    В ролях: Ансамбль Хора 79, Гила Альмагор, Натан Датнер
    Описание: Легендарный израильский коллектив народного танца "Хора 79" распался после загадочного трагического события. Несчастный случай? Убийство? Самоубийство? 30 лет спустя участники коллектива вновь собираются вместе, чтобы выступить на фестивале танца в Кармиэле. Встреча наполнена ностальгией, напряженностью и чувством вины. Смогут ли они преодолеть темные призраки прошлого, старые конфликты, предательства, интриги?
    Доп. информация: Огромное спасибо abraka за предоставленную запись.
    Сэмпл: http://multi-up.com/1100771
    Качество видео: SATRip
    Формат видео: AVI
    Видео: Xvid 704x400 25fps 1995kbps
    Аудио: MP3 48000Hz stereo 160kbps
    Формат субтитров: hardsub (неотключаемые)

    MediaInfo

    General
    Complete name : C:\Downloads\ХОРА.avi
    Format : AVI
    Format/Info : Audio Video Interleave
    File size : 1.33 GiB
    Duration : 1h 27mn
    Overall bit rate : 2 165 Kbps
    Writing library : VirtualDub-MPEG2 build 24600/release
    Video
    ID : 0
    Format : MPEG-4 Visual
    Format profile : Simple@L5
    Format settings, BVOP : No
    Format settings, QPel : No
    Format settings, GMC : No warppoints
    Format settings, Matrix : Default (H.263)
    Codec ID : XVID
    Codec ID/Hint : XviD
    Duration : 1h 27mn
    Bit rate : 1 995 Kbps
    Width : 704 pixels
    Height : 400 pixels
    Display aspect ratio : 16:9
    Frame rate : 25.000 fps
    Color space : YUV
    Chroma subsampling : 4:2:0
    Bit depth : 8 bits
    Scan type : Progressive
    Compression mode : Lossy
    Bits/(Pixel*Frame) : 0.283
    Stream size : 1.22 GiB (92%)
    Writing library : XviD 73
    Audio
    ID : 1
    Format : MPEG Audio
    Format version : Version 1
    Format profile : Layer 3
    Mode : Joint stereo
    Codec ID : 55
    Codec ID/Hint : MP3
    Duration : 1h 27mn
    Bit rate mode : Constant
    Bit rate : 160 Kbps
    Channel(s) : 2 channels
    Sampling rate : 48.0 KHz
    Compression mode : Lossy
    Stream size : 101 MiB (7%)
    Alignment : Split accross interleaves
    Interleave, duration : 40 ms (1.00 video frame)
    Interleave, preload duration : 500 ms

    Скриншоты





    Скачать .torrent

    Скачать торрент-файл бесплатно и на максимальной скорости!

    Как скачивать? · Что такое торрент? · Рейтинг и ограничения

    !ВНИМАНИЕ!
    Сайт не распространяет и не хранит электронные версии произведений, а занимается лишь лишь предоставлением доступа к создаваемому пользователями каталогу ссылок на торрент-файлы, которые содержат только списки хеш-сумм, убедительная просьба с жалобами обращаться напрямую к пользователю. Файлы для обмена на трекере предоставлены пользователями сайта, и администрация не несёт ответственности за их содержание. Просьба не заливать файлы, защищенные авторскими правами, а также файлы нелегального содержания!


    _________________
    [Профиль] [ЛС]
    Показать сообщения:    
    Ответить на тему

    Текущее время: Сегодня, в 10:34

    Часовой пояс: GMT + 2



    Вы не можете начинать темы
    Вы не можете отвечать на сообщения
    Вы не можете редактировать свои сообщения
    Вы не можете удалять свои сообщения
    Вы не можете голосовать в опросах
    Вы не можете прикреплять файлы к сообщениям
    Вы не можете скачивать файлы