BitTorrentTracker PerecTracker.org
BitTorrentTracker PerecTracker.org
    
Регистрация  ·  Вход
 
 · 
Забыли пароль?

  • Нелегкое счастье (Михаил Жерневский) [2016, Мелодрама, HDTVRip]

    Ответить на тему
     
    Автор Сообщение

    Flirldrerve

    Создавать темы 14-Май-2016 02:15

           

    [Цитировать]

    Нелегкое счастье-Жанр: Мелодрама
    Год выпуска: 2016
    Продолжительность: 01:30:31-Режиссёр: Михаил Жерневский-В ролях: Оксана Лесная, Дарья Парменкова, Александра Ермакова, Алексей Коряков, Сергей Мухин, Евгения Кульбачная, Людмила Кучеренко, Андрей Карако, Галина Кухальская, Алиса Мосина-Описание: Этот мир она представляла однобоко, без четких границ жестокой действительности. Сколько любви и нежности таилось в ней, для того, чтобы беззаветно отдать любимому существу. И вот, наконец, оно найдено. Теперь можно реализовать весь потенциал, накопленный во время прекрасной поры. Эти годы она посвятит непреодолимому желанию изваять счастье. Оно бы так и текло – это незабываемое время, если бы не проказница судьба, готовая нанести удар в самый неподходящий момент и по самому уязвимому. Теперь нужно найти выход и не зачеркнуть то, что она так долго могла сохранить. Но, это невозможно. Надо же было столкнуться с такой непредвиденностью, которая никак не могла уложиться у нее в голове. Будь она немного наделена прагматизмом, этого бы не случилось. В ней слишком долго жил юный задор, лишенный грубого понимания жизни. Даже ее зрелость не смогла подсказать ей насколько виртуозной может быть жизнь. И это теперь, когда ей нужно решиться на шаг, определяющий ее труд, усилия, ведущие к счастью. Выбор уже поставил перед ней задачу, решить которую поможет ей любовь. Она не может исчезнуть с ее сознания. Она слишком глубока и священна. Она стоит того, чтобы выдержать последний напор – ее позднего--Релиз от: -Качество видео: HDTVRip (исх. неизвестен)
    Формат видео: AVI
    Видео: 720x400 (16:9), 25.000 fps, XviD 73, 1938 Kbps, 0.26 bit/pixel
    Аудио: 48.0 kHz, AC3 Dolby Digital, 2 ch, 192 Kbps

    MediaInfo

    General
    Complete name : Downloads\Nelepoe.chastje.2016.HDTVRip.Files-x.avi
    Format : AVI
    Format/Info : Audio Video Interleave
    File size : 1.37 GiB
    Duration : 1h 31mn
    Overall bit rate : 2 139 Kbps
    Writing application : VirtualDubModRus 1.5.10.2 (build 2542/release)
    Writing library : VirtualDubMod build 2542/release
    Video #0
    ID : 0
    Format : MPEG-4 Visual
    Format profile : Advanced Simple@L5
    Format settings, BVOP : 1
    Format settings, QPel : No
    Format settings, GMC : No warppoints
    Format settings, Matrix : Custom
    Codec ID : XVID
    Codec ID/Hint : XviD
    Duration : 1h 31mn
    Bit rate : 1 938 Kbps
    Width : 720 pixels
    Height : 400 pixels
    Display aspect ratio : 16:9
    Frame rate : 25.000 fps
    Color space : YUV
    Chroma subsampling : 4:2:0
    Bit depth : 8 bits
    Scan type : Progressive
    Compression mode : Lossy
    Bits/(Pixel*Frame) : 0.269
    Stream size : 1.24 GiB (91%)
    Writing library : XviD 73
    Audio #1
    ID : 1
    Format : AC-3
    Format/Info : Audio Coding 3
    Mode extension : CM (complete main)
    Format settings, Endianness : Big
    Codec ID : 2000
    Duration : 1h 31mn
    Bit rate mode : Constant
    Bit rate : 192 Kbps
    Channel(s) : 2 channels
    Channel positions : Front: L R
    Sampling rate : 48.0 KHz
    Bit depth : 16 bits
    Compression mode : Lossy
    Stream size : 126 MiB (9%)
    Alignment : Split accross interleaves
    Interleave, duration : 40 ms (1.00 video frame)
    Interleave, preload duration : 500 ms

    Скриншот c названием фильма

    Скриншоты

    Скачать .torrent

    Скачать торрент-файл бесплатно и на максимальной скорости!

    Как скачивать? · Что такое торрент? · Рейтинг и ограничения

    !ВНИМАНИЕ!
    Сайт не распространяет и не хранит электронные версии произведений, а занимается лишь лишь предоставлением доступа к создаваемому пользователями каталогу ссылок на торрент-файлы, которые содержат только списки хеш-сумм, убедительная просьба с жалобами обращаться напрямую к пользователю. Файлы для обмена на трекере предоставлены пользователями сайта, и администрация не несёт ответственности за их содержание. Просьба не заливать файлы, защищенные авторскими правами, а также файлы нелегального содержания!


    _________________
    [Профиль] [ЛС]
    Показать сообщения:    
    Ответить на тему

    Текущее время: Сегодня, в 16:26

    Часовой пояс: GMT + 2



    Вы не можете начинать темы
    Вы не можете отвечать на сообщения
    Вы не можете редактировать свои сообщения
    Вы не можете удалять свои сообщения
    Вы не можете голосовать в опросах
    Вы не можете прикреплять файлы к сообщениям
    Вы не можете скачивать файлы