BitTorrentTracker PerecTracker.org
BitTorrentTracker PerecTracker.org
    
Регистрация  ·  Вход
 
 · 
Забыли пароль?

  • Тебе конец! / You\'re Next (Адам Вингард / Adam Wingard) [2011, США, Великобритания, триллер, ужасы, BDRemux 1080p] Dub (iTunes) + AVO (Андрей Дольский) + 2x VO (Doctor Joker, Kyberpunk) + Sub Rus, Eng + Original Eng

    Ответить на тему
     
    Автор Сообщение

    Light

    Создавать темы 13-Май-2016 14:00

           

    [Цитировать]

    -Тебе конец! / You're Next-Страна: США, Великобритания
    Жанр: триллер, ужасы
    Год выпуска: 2011
    Продолжительность: 01:34:23-Перевод: Профессиональный (дублированный) iTunes
    Перевод 2: Авторский (одноголосый закадровый) Андрей Дольский
    Перевод 3: Одноголосый закадровый Алексей "Doctor Joker" Матвеев
    Перевод 4: Одноголосый закадровый Михаил "Kyberpunk" Яроцкий
    Cубтитры: русские (x4), английские
    Оригинальная аудиодорожка: английский-Режиссер: Адам Вингард / Adam Wingard
    В ролях: Шарни Винсон, Николас Туччи, Венди Гленн, Эй Джей Боуэн, Джо Сванберг, Маргарет Лэни, Эми Саймец, Тай Уэст, Роб Моран, Барбара Крэмптон-Описание: Банда маньяков в звериных масках, вооруженных топорами и арбалетами, вторгается в загородный дом семьи Дэвисон. Жертвы оказываются в западне… Неожиданно среди них находится один достойный противник, способный дать отпор убийцам.-Сэмпл-Тип релиза: BDRemux 1080p
    Контейнер: MKV
    Видео: MPEG-4 AVC Video / 22014 kbps / 1080p / 23.976 fps / 16:9 / High Profile 4.1
    Аудио: Dolby Digital Audio Russian 384 kbps 5.1 / 48 kHz |Дубляж, iTunes Russia|
    Аудио 2: Russian / DTS-HD Master Audio / 5.1 / 48 kHz / 3201 kbps / 24-bit (DTS Core: 5.1 / 48 kHz / 1509 kbps / 24-bit) |Одноголосый закадровый, А.Дольский|
    Аудио 3: Russian / DTS-HD Master Audio / 5.1 / 48 kHz / 3514 kbps / 24-bit (DTS Core: 5.1 / 48 kHz / 1509 kbps / 24-bit) |Одноголосый закадровый, А.Матвеев|
    Аудио 4: Russian / DTS-HD Master Audio / 5.1 / 48 kHz / 3540 kbps / 24-bit (DTS Core: 5.1 / 48 kHz / 1509 kbps / 24-bit) |Одноголосый закадровый, М.Яроцкий|
    Аудио 5: English / DTS-HD Master Audio / 5.1 / 48 kHz / 3591 kbps / 24-bit (DTS Core: 5.1 / 48 kHz / 1509 kbps / 24-bit)
    Формат субтитров: softsub (SRT)

    MI

    GeneralUnique ID : 230052066122300888712381443494577938937 (0xAD126A92113679A6B8EC1327E153A1F9)Complete name : S:\На хранении\Тебе конец! (2011. You're Next).mkvFormat : MatroskaFormat version : Version 4 / Version 2File size : 23.8 GiBDuration : 1h 34mnOverall bit rate mode : VariableOverall bit rate : 36.1 MbpsMovie name : Release for RuTrackerEncoded date : UTC 2016-05-10 22:19:00Writing application : mkvmerge v9.0.1 ('Obstacles') 64bitWriting library : libebml v1.3.3 + libmatroska v1.4.4Cover : YesAttachments : Cover.jpg
    VideoID : 1Format : AVCFormat/Info : Advanced Video CodecFormat profile : High@L4.1Format settings, CABAC : YesFormat settings, ReFrames : 4 framesCodec ID : V_MPEG4/ISO/AVCDuration : 1h 34mnBit rate mode : VariableBit rate : 21.9 MbpsMaximum bit rate : 38.0 MbpsWidth : 1 920 pixelsHeight : 1 080 pixelsDisplay aspect ratio : 16:9Frame rate mode : ConstantFrame rate : 23.976 (24000/1001) fpsColor space : YUVChroma subsampling : 4:2:0Bit depth : 8 bitsScan type : ProgressiveBits/(Pixel*Frame) : 0.440Stream size : 14.4 GiB (61%)Title : You're.Next.2011.1080p.BluRay.AVC.Remux.HDCLUBLanguage : EnglishDefault : YesForced : No
    Audio #1ID : 2Format : AC-3Format/Info : Audio Coding 3Mode extension : CM (complete main)Format settings, Endianness : BigCodec ID : A_AC3Duration : 1h 34mnBit rate mode : ConstantBit rate : 384 KbpsChannel(s) : 6 channelsChannel positions : Front: L C R, Side: L R, LFESampling rate : 48.0 KHzFrame rate : 31.250 fps (1536 spf)Compression mode : LossyStream size : 259 MiB (1%)Title : ДубляжLanguage : RussianDefault : YesForced : No
    Audio #2ID : 3Format : DTSFormat/Info : Digital Theater SystemsFormat profile : MA / CoreMode : 16Format settings, Endianness : BigCodec ID : A_DTSDuration : 1h 34mnBit rate mode : Variable / ConstantBit rate : 3 201 Kbps / 1 509 KbpsChannel(s) : 6 channelsChannel positions : Front: L C R, Side: L R, LFESampling rate : 48.0 KHzFrame rate : 93.750 fps (512 spf)Bit depth : 24 bitsCompression mode : Lossless / LossyStream size : 2.11 GiB (9%)Title : Андрей ДольскийLanguage : RussianDefault : NoForced : No
    Audio #3ID : 4Format : DTSFormat/Info : Digital Theater SystemsFormat profile : MA / CoreMode : 16Format settings, Endianness : BigCodec ID : A_DTSDuration : 1h 34mnBit rate mode : Variable / ConstantBit rate : 3 514 Kbps / 1 509 KbpsChannel(s) : 6 channelsChannel positions : Front: L C R, Side: L R, LFESampling rate : 48.0 KHzFrame rate : 93.750 fps (512 spf)Bit depth : 24 bitsCompression mode : Lossless / LossyStream size : 2.32 GiB (10%)Title : Алексей "Doctor_Joker" МатвеевLanguage : RussianDefault : NoForced : No
    Audio #4ID : 5Format : DTSFormat/Info : Digital Theater SystemsFormat profile : MA / CoreMode : 16Format settings, Endianness : BigCodec ID : A_DTSDuration : 1h 34mnBit rate mode : Variable / ConstantBit rate : 3 540 Kbps / 1 509 KbpsChannel(s) : 6 channelsChannel positions : Front: L C R, Side: L R, LFESampling rate : 48.0 KHzFrame rate : 93.750 fps (512 spf)Bit depth : 24 bitsCompression mode : Lossless / LossyStream size : 2.33 GiB (10%)Title : Михаил "Kyberpunk" ЯроцкийLanguage : RussianDefault : NoForced : No
    Audio #5ID : 6Format : DTSFormat/Info : Digital Theater SystemsFormat profile : MA / CoreMode : 16Format settings, Endianness : BigCodec ID : A_DTSDuration : 1h 34mnBit rate mode : Variable / ConstantBit rate : 3 596 Kbps / 1 509 KbpsChannel(s) : 6 channelsChannel positions : Front: L C R, Side: L R, LFESampling rate : 48.0 KHzFrame rate : 93.750 fps (512 spf)Bit depth : 24 bitsCompression mode : Lossless / LossyStream size : 2.37 GiB (10%)Language : EnglishDefault : NoForced : No
    Text #1ID : 7Format : UTF-8Codec ID : S_TEXT/UTF8Codec ID/Info : UTF-8 Plain TextDuration : 1h 30mnBit rate : 62 bpsCount of elements : 732Stream size : 41.8 KiB (0%)Title : Doctor_JokerLanguage : RussianDefault : NoForced : No
    Text #2ID : 8Format : UTF-8Codec ID : S_TEXT/UTF8Codec ID/Info : UTF-8 Plain TextDuration : 1h 30mnBit rate : 52 bpsCount of elements : 733Stream size : 34.7 KiB (0%)Title : Евгений Воронин (ненормативный)Language : RussianDefault : NoForced : No
    Text #3ID : 9Format : UTF-8Codec ID : S_TEXT/UTF8Codec ID/Info : UTF-8 Plain TextDuration : 1h 30mnBit rate : 52 bpsCount of elements : 734Stream size : 34.7 KiB (0%)Title : Евгений Воронин (цензурный)Language : RussianDefault : NoForced : No
    Text #4ID : 10Format : UTF-8Codec ID : S_TEXT/UTF8Codec ID/Info : UTF-8 Plain TextDuration : 1h 30mnBit rate : 55 bpsCount of elements : 857Stream size : 36.9 KiB (0%)Title : krilatkinLanguage : RussianDefault : NoForced : No
    Text #5ID : 11Format : UTF-8Codec ID : S_TEXT/UTF8Codec ID/Info : UTF-8 Plain TextDuration : 1h 30mnBit rate : 37 bpsCount of elements : 720Stream size : 24.6 KiB (0%)Language : EnglishDefault : NoForced : No
    Text #6ID : 12Format : UTF-8Codec ID : S_TEXT/UTF8Codec ID/Info : UTF-8 Plain TextDuration : 1h 33mnBit rate : 46 bpsCount of elements : 1044Stream size : 31.7 KiB (0%)Title : SDHLanguage : EnglishDefault : NoForced : No
    Menu00:00:00.000 : en:00:00:00.00000:04:26.015 : en:00:04:26.01500:15:08.365 : en:00:15:08.36500:22:49.868 : en:00:22:49.86800:33:38.850 : en:00:33:38.85000:44:59.821 : en:00:44:59.82100:54:07.994 : en:00:54:07.99401:01:25.681 : en:01:01:25.68101:11:12.017 : en:01:11:12.01701:17:46.077 : en:01:17:46.07701:24:08.126 : en:01:24:08.12601:31:24.979 : en:01:31:24.979
    Скриншоты

    Зеркало


    Цитата:
    Цитата:

    • Релиз Skazhutin и .
    • Дорожка с переводом А.Дольского доступна благодаря пользователям форума e180: fen, SavineX78, Марлон, zeleniy, luka69, rammzez, Daniel Rock, fryak, Iceman, Диммон, carnivale, SJC, Pumamen, каак, semargl, Мr. Di, masta, dark1982, maximus10-99. За сборку спасибо rammzez. Отдельная благодарность fen.
    • Дорожка с переводом А.Матвеева доступна благодаря пользователю сайта Переулок переводмана: dikii. Работа со звуком: Переводман.
    • Дорожка с переводом М.Яроцкого доступна благодаря пользователю сайта Переулок переводмана: mihey10. Работа со звуком: Переводман.
    • Исходный WEB-DL куплен в рамках сервиса "Копилка" HDClub.
    Скачать .torrent

    Скачать торрент-файл бесплатно и на максимальной скорости!

    Как скачивать? · Что такое торрент? · Рейтинг и ограничения

    !ВНИМАНИЕ!
    Сайт не распространяет и не хранит электронные версии произведений, а занимается лишь лишь предоставлением доступа к создаваемому пользователями каталогу ссылок на торрент-файлы, которые содержат только списки хеш-сумм, убедительная просьба с жалобами обращаться напрямую к пользователю. Файлы для обмена на трекере предоставлены пользователями сайта, и администрация не несёт ответственности за их содержание. Просьба не заливать файлы, защищенные авторскими правами, а также файлы нелегального содержания!


    _________________
    [Профиль] [ЛС]
    Показать сообщения:    
    Ответить на тему

    Текущее время: Сегодня, в 10:16

    Часовой пояс: GMT + 2



    Вы не можете начинать темы
    Вы не можете отвечать на сообщения
    Вы не можете редактировать свои сообщения
    Вы не можете удалять свои сообщения
    Вы не можете голосовать в опросах
    Вы не можете прикреплять файлы к сообщениям
    Вы не можете скачивать файлы