BitTorrentTracker PerecTracker.org
BitTorrentTracker PerecTracker.org
    
Регистрация  ·  Вход
 
 · 
Забыли пароль?

  • Выбор / The Choice (Росс Кац / Ross Katz) [2016, США, Драма, мелодрама, HDRip] MVO (RecentFilms)

    Ответить на тему
     
    Автор Сообщение

    rechyn

    Создавать темы 13-Май-2016 14:00

           

    [Цитировать]

    Выбор / The Choice
    Страна: США
    Жанр: Драма, мелодрама
    Год выпуска: 2016
    Продолжительность: 01:51:06
    Перевод: Любительский (многоголосый закадровый) (RecentFilms)
    Cубтитры: нет
    Оригинальная аудиодорожка: нет
    Режиссер: Росс Кац / Ross Katz
    В ролях: Александра Даддарио, Тереза Палмер, Мэгги Грэйс, Бенджамин Уокер, Том Уэллинг, Том Уилкинсон, Брэд Джеймс, Анна Энгер, Бретт Райс, Вилбур Фицджералд
    Описание: Любовь? Серьезные отношения? Ответственность? Семья? Закоренелый холостяк Тревис Паркер считает, что все это не для него. У него есть отличная работа и верные друзья. Он увлекается охотой, рыбалкой, занимается экстремальными видами спорта — и избегает серьезных отношений. Но не родился еще на свет человек, которому удалось бы уйти от настоящей любви… Когда в доме по соседству поселяется тихая, замкнутая Габи, жизнь Тревиса меняется.
    Группа
    желает всем приятного просмотра!Качество видео: HDRip / BDRip (1080p)
    Формат видео: AVI
    Видео: 720x304 (2.37:1), 23.976 fps, XviD build 65 ~1690 kbps avg, 0.32 bit/pixel
    Audio: 48 kHz, AC3 Dolby Digital, 2/0 (L,R) ch, ~192 kbps
    MediaInfo
    General
    Complete name : D:\Торренты\The Choice_Drek_Rutracker.org.avi
    Format : AVI
    Format/Info : Audio Video Interleave
    File size : 1.47 GiB
    Duration : 1h 51mn
    Overall bit rate : 1 892 Kbps
    Writing application : VirtualDubMod 1.5.10.2 (build 2540/release)
    Writing library : VirtualDubMod build 2540/release
    Video
    ID : 0
    Format : MPEG-4 Visual
    Format profile : Advanced Simple@L5
    Format settings, BVOP : 1
    Format settings, QPel : No
    Format settings, GMC : No warppoints
    Format settings, Matrix : Custom
    Codec ID : XVID
    Codec ID/Hint : XviD
    Duration : 1h 51mn
    Bit rate : 1 691 Kbps
    Width : 720 pixels
    Height : 304 pixels
    Display aspect ratio : 2.35:1
    Frame rate : 23.976 (24000/1001) fps
    Color space : YUV
    Chroma subsampling : 4:2:0
    Bit depth : 8 bits
    Scan type : Progressive
    Compression mode : Lossy
    Bits/(Pixel*Frame) : 0.322
    Stream size : 1.31 GiB (89%)
    Writing library : XviD 65
    Audio
    ID : 1
    Format : AC-3
    Format/Info : Audio Coding 3
    Mode extension : CM (complete main)
    Format settings, Endianness : Big
    Codec ID : 2000
    Duration : 1h 51mn
    Bit rate mode : Constant
    Bit rate : 192 Kbps
    Channel(s) : 2 channels
    Channel positions : Front: L R
    Sampling rate : 48.0 KHz
    Frame rate : 31.250 fps (1536 spf)
    Compression mode : Lossy
    Stream size : 153 MiB (10%)
    Alignment : Split accross interleaves
    Interleave, duration : 42 ms (1.00 video frame)
    Interleave, preload duratio : 500 ms
    Скриншоты
    Скачать .torrent

    Скачать торрент-файл бесплатно и на максимальной скорости!

    Как скачивать? · Что такое торрент? · Рейтинг и ограничения

    !ВНИМАНИЕ!
    Сайт не распространяет и не хранит электронные версии произведений, а занимается лишь лишь предоставлением доступа к создаваемому пользователями каталогу ссылок на торрент-файлы, которые содержат только списки хеш-сумм, убедительная просьба с жалобами обращаться напрямую к пользователю. Файлы для обмена на трекере предоставлены пользователями сайта, и администрация не несёт ответственности за их содержание. Просьба не заливать файлы, защищенные авторскими правами, а также файлы нелегального содержания!


    _________________
    [Профиль] [ЛС]
    Показать сообщения:    
    Ответить на тему

    Текущее время: Сегодня, в 10:41

    Часовой пояс: GMT + 2



    Вы не можете начинать темы
    Вы не можете отвечать на сообщения
    Вы не можете редактировать свои сообщения
    Вы не можете удалять свои сообщения
    Вы не можете голосовать в опросах
    Вы не можете прикреплять файлы к сообщениям
    Вы не можете скачивать файлы