Register  ·  Log in
Forgot password?

  • Слушание / Confirmation (Рик Фамуйива / Rick Famuyiwa) [2016, США, Драма, история, HDTVRip] MVO (Amedia)

    Reply to topic
    Author Message


    Post 13-May-2016 15:00



    Слушание / Confirmation-Год выпуска: 2016
    Выпущено: США / ABC Signature Studios, HBO Films
    Жанр: драма, история
    Продолжительность: 01:45:10
    Перевод: Профессиональный (многоголосый закадровый) Amedia
    Cубтитры: нет-Режиссер:
    Рик Фамуйива / Rick Famuyiwa-В ролях:
    Керри Вашингтон (Anita Hill), Уенделл Пирс (Clarence Thomas), Грег Киннер (Joe Biden), Джеффри Райт (Charles Ogletree), Зои Листер Джонс (Carolyn Hart), Грэйс Гаммер (Ricki Seidman), Трит Уильямс (Ted Kennedy), Дилан Бейкер (Orrin Hatch), Эрика Кристенсен (Shirley Wiegand), Элисон Райт (Virginia Thomas)-Описание:
    Политический скандал 1991 года, когда на слушании по назначению Кларенса Томаса в Верховный суд США, бывшая коллега Анита Хилл обвинила судью в сексуальном домогательстве.-Релиз групп
    | | IMDB | КиноПоиск | Сэмпл |-Качество: HDTVRip [Confirmation.2016.HDTV.1080p.DD5.1.x264-CasStudio]
    Формат: AVI
    Видео: 704x400 (1.76:1), 25 fps, XviD build 67 ~1589 kbps avg, 0.23 bit/pixel
    Аудио: 48 kHz, AC3 Dolby Digital, 3/2 (L,C,R,l,r) + LFE ch, ~384 kbps-




    Complete name                            : D:\Slushanie_2016_HDTVRip_by_Dalemake.avi
    Format                                   : AVI
    Format/Info                              : Audio Video Interleave
    File size                                : 1.46 GiB
    Duration                                 : 1h 45mn
    Overall bit rate                         : 1 984 Kbps
    Writing application                      : VirtualDubMod | || (build 2550/release)
    Writing library                          : VirtualDubMod build 2550/release
    ID                                       : 0
    Format                                   : MPEG-4 Visual
    Format profile                           : Advanced Simple@L5
    Format settings, BVOP                    : 1
    Format settings, QPel                    : No
    Format settings, GMC                     : No warppoints
    Format settings, Matrix                  : Custom
    Codec ID                                 : XVID
    Codec ID/Hint                            : XviD
    Duration                                 : 1h 45mn
    Bit rate                                 : 1 590 Kbps
    Width                                    : 704 pixels
    Height                                   : 400 pixels
    Display aspect ratio                     : 16:9
    Frame rate                               : 25.000 fps
    Color space                              : YUV
    Chroma subsampling                       : 4:2:0
    Bit depth                                : 8 bits
    Scan type                                : Progressive
    Compression mode                         : Lossy
    Bits/(Pixel*Frame)                       : 0.226
    Stream size                              : 1.17 GiB (80%)
    Writing library                          : XviD 67
    ID                                       : 1
    Format                                   : AC-3
    Format/Info                              : Audio Coding 3
    Mode extension                           : CM (complete main)
    Format settings, Endianness              : Big
    Codec ID                                 : 2000
    Duration                                 : 1h 45mn
    Bit rate mode                            : Constant
    Bit rate                                 : 384 Kbps
    Channel(s)                               : 6 channels
    Channel positions                        : Front: L C R, Side: L R, LFE
    Sampling rate                            : 48.0 KHz
    Frame rate                               : 31.250 fps (1536 spf)
    Compression mode                         : Lossy
    Stream size                              : 289 MiB (19%)
    Alignment                                : Split accross interleaves
    Interleave, duration                     : 40 ms (1.00 video frame)
    Interleave, preload duration             : 500 ms
    Download .torrent

    Download free and at maximum speed!

    How to Download? · What is a torrent? · Ratings and Limitations

    The site does not extend and does not store electronic(digital) versions of products, and only gives access to a reference catalogue created by users on torrent-files which contain only lists of the hash-sums, the earnest entreaty, with complaints(abuse) to access directly to the user. Files for an exchange on tracker are given by users of a site, and the administration does not bear the responsibility for their maintenance. The request to not fill in the files protected by copyrights, and also files of the illegal maintenance!

    [Profile] [PM]
    Display posts from previous:    
    Reply to topic

    The time now is: Today 19:05

    All times are GMT + 3 Hours

    You cannot post new topics in this forum
    You cannot reply to topics in this forum
    You cannot edit your posts in this forum
    You cannot delete your posts in this forum
    You cannot vote in polls in this forum
    You cannot attach files in this forum
    You cannot download files in this forum