BitTorrentTracker PerecTracker.org
BitTorrentTracker PerecTracker.org
    
Регистрация  ·  Вход
 
 · 
Забыли пароль?

  • Гуманитарные науки / Liberal Arts (Джош Рэднор / Josh Radnor) [2012 г., драма, комедия, BDRip-AVC] VO (ViruseProject) + VO (Kerob) + Original (Eng) + Sub (Rus, Eng)

    Ответить на тему
     
    Автор Сообщение

    Columb

    Создавать темы 16-Фев-2014 10:58

           

    [Цитировать]

    Гуманитарные науки / Liberal Arts«Sometimes students make the best teachers»-Год выпуска: 2012
    Страна: США
    Жанр: драма, комедия
    Рейтинг MPAA:
    Продолжительность: 01:37:16
    Перевод: Одноголосый закадровый Kenum (ViruseProject)
    Cубтитры: Русские (Notabenoid), английские, английские SDH-Режиссер: Джош Рэднор / Josh Radnor
    В ролях: Джош Рэднор, Элизабет Олсен, Зак Эфрон, Ричард Дженкинс, Эллисон Джэнни, Элизабет Ризер, Джон Магаро, Кейт Бертон, Роберт Десидерио, Кристен Буш, Али Ан, Нед Донис, Грегг Эдельман
    Описание:
    Сюжет повествует о парне тридцати лет и студентке колледжа, которых объединяет взаимная любовь к книгам и музыке, но разница в возрасте мешает их отношениям.--Качество: BDRip-AVC
    Формат: MKV
    Видео кодек: AVC
    Аудио кодек: AC3
    Видео: AVC, 1174x500 (2,35:1), 23,976 fps, 2749 kbps, 0.190 b/p*f
    Аудио #1: AC3, 48kHz, 6ch, 448Kbps | VO (ViruseProject)
    Аудио #2: AC3, 48kHz, 6ch, 448Kbps | VO (Kerob)
    Аудио #3: AC3, 48kHz, 6ch, 448Kbps | Original
    Формат субтитров: SRT

    x264

    ---[Information] [14.02.2014 7:29:37] raw [info]: 1174x500p 1:1 @ 24000/1001 fps (cfr)
    ---[Information] [14.02.2014 7:29:37] x264 [info]: using SAR=1/1
    ---[Information] [14.02.2014 7:29:37] x264 [info]: using cpu capabilities: MMX2 SSE2Fast SSSE3 SSE4.2 AVX XOP FMA4 FMA3 LZCNT BMI1
    ---[Information] [14.02.2014 7:29:37] x264 [info]: profile High, level 4.1
    ---[Information] [14.02.2014 7:29:37] x264 [info]: cabac=1 ref=11 deblock=1:-3:-3 analyse=0x3:0x133 me=umh subme=11 psy=1 fade_compensate=0.00 psy_rd=1.10:0.05 mixed_ref=1 me_range=48 chroma_me=1 trellis=2 8x8dct=1 cqm=0 deadzone=21,11 fast_pskip=1 chroma_qp_offset=-5 threads=3 lookahead_threads=1 sliced_threads=0 nr=0 decimate=1 interlaced=0 bluray_compat=0 constrained_intra=0 fgo=0 bframes=16 b_pyramid=2 b_adapt=2 b_bias=0 direct=1 weightb=1 open_gop=0 weightp=2 keyint=240 keyint_min=23 scenecut=40 intra_refresh=0 rc_lookahead=60 rc=crf mbtree=0 crf=18.0000 qcomp=0.70 qpmin=0 qpmax=69 qpstep=4 vbv_maxrate=62500 vbv_bufsize=50000 crf_max=0.0 nal_hrd=none filler=0 ip_ratio=1.40 pb_ratio=1.30 aq=2:0.85 zones=133207,139943,q=30
    ---[Information] [14.02.2014 7:29:37]              frames     fps     kb/s    elapsed   remain     size    est.size
    ---[Information] [15.02.2014 9:20:11] x264 [info]: frame I:1133  Avg QP:16.83  size: 94107
    ---[Information] [15.02.2014 9:20:13] x264 [info]: frame P:25863 Avg QP:18.40  size: 34708
    ---[Information] [15.02.2014 9:20:13] x264 [info]: frame B:112948 Avg QP:20.73  size:  8869
    ---[Information] [15.02.2014 9:20:13] x264 [info]: consecutive B-frames:  1.3%  1.0%  4.2% 11.0% 10.0% 59.7%  4.7%  0.7%  2.4%  0.2%  0.5%  1.0%  0.2%  0.2%  0.1%  2.5%  0.4%
    ---[Information] [15.02.2014 9:20:13] x264 [info]: mb I  I16..4:  4.2% 76.1% 19.7%
    ---[Information] [15.02.2014 9:20:13] x264 [info]: mb P  I16..4:  0.3%  6.9%  1.7%  P16..4: 29.9% 35.5% 16.8%  2.5%  0.3%    skip: 6.2%
    ---[Information] [15.02.2014 9:20:13] x264 [info]: mb B  I16..4:  0.0%  0.6%  0.2%  B16..8: 32.2% 20.6%  3.5%  direct: 5.2%  skip:37.6%  L0:42.3% L1:43.8% BI:13.9%
    ---[Information] [15.02.2014 9:20:13] x264 [info]: 8x8 transform intra:75.1% inter:61.3%
    ---[Information] [15.02.2014 9:20:13] x264 [info]: coded y,uvDC,uvAC intra: 86.9% 93.1% 87.4% inter: 19.5% 29.5% 16.0%
    ---[Information] [15.02.2014 9:20:13] x264 [info]: i16 v,h,dc,p: 25% 18%  7% 49%
    ---[Information] [15.02.2014 9:20:13] x264 [info]: i8 v,h,dc,ddl,ddr,vr,hd,vl,hu: 14% 10%  7%  9% 12% 12% 12% 12% 12%
    ---[Information] [15.02.2014 9:20:13] x264 [info]: i4 v,h,dc,ddl,ddr,vr,hd,vl,hu: 41%  9%  6%  5%  8%  9%  8%  7%  8%
    ---[Information] [15.02.2014 9:20:13] x264 [info]: i8c dc,h,v,p: 46% 20% 20% 14%
    ---[Information] [15.02.2014 9:20:13] x264 [info]: Weighted P-Frames: Y:3.7% UV:1.8%
    ---[Information] [15.02.2014 9:20:13] x264 [info]: ref P L0: 44.3% 10.6% 18.4%  6.2%  5.7%  3.8%  3.8%  1.9%  2.0%  1.5%  1.7%  0.1%  0.0%
    ---[Information] [15.02.2014 9:20:13] x264 [info]: ref B L0: 73.1% 11.6%  5.6%  2.9%  2.0%  1.8%  1.4%  0.9%  0.5%  0.3%
    ---[Information] [15.02.2014 9:20:13] x264 [info]: ref B L1: 93.3%  6.7%
    ---[Information] [15.02.2014 9:20:13] x264 [info]: kb/s:2749.41

    MI

    Общее
    Уникальный идентификатор                 : 214770397775009978895371525099898593605 (0xA1934626749E2A96AAD9B4951B74E145)
    Полное имя                               : D:\Гуманитарные науки '12 [Wrnr].mkv
    Формат                                   : Matroska
    Версия формата                           : Version 4 / Version 2
    Размер файла                             : 2,78 Гбайт
    Продолжительность                        : 1 ч. 37 м.
    Общий поток                              : 4096 Кбит/сек
    Название фильма                          : Гуманитарные науки / Liberal Arts - 2012
    Дата кодирования                         : UTC 2014-02-16 00:23:19
    Программа кодирования                    : mkvmerge v6.2.0 ('Promised Land') built on Apr 28 2013 12:22:01
    Библиотека кодирования                   : libebml v1.3.0 + libmatroska v1.4.0
    Видео
    Идентификатор                            : 1
    Формат                                   : AVC
    Формат/Информация                        : Advanced Video Codec
    Профиль формата                          : High@L4.1
    Параметр CABAC формата                   : Да
    Параметр ReFrames формата                : 11 кадров
    Идентификатор кодека                     : V_MPEG4/ISO/AVC
    Продолжительность                        : 1 ч. 37 м.
    Битрейт                                  : 2671 Кбит/сек
    Ширина                                   : 1174 пикселя
    Высота                                   : 500 пикселей
    Соотношение сторон                       : 2,35:1
    Режим частоты кадров                     : Постоянный
    Частота кадров                           : 23,976 кадра/сек
    Цветовое пространство                    : YUV
    Субдискретизация насыщенности            : 4:2:0
    Битовая глубина                          : 8 бит
    Тип развёртки                            : Прогрессивная
    Бит/(Пиксели*Кадры)                      : 0.190
    Размер потока                            : 1,81 Гбайт (65%)
    Заголовок                                : Encoded by Wrnr
    Библиотека кодирования                   : x264 core 142 r2389kMod 956c8d8
    Настройки программы                      : cabac=1 / ref=11 / deblock=1:-3:-3 / analyse=0x3:0x133 / me=umh / subme=11 / psy=1 / fade_compensate=0.00 / psy_rd=1.10:0.05 / mixed_ref=1 / me_range=48 / chroma_me=1 / trellis=2 / 8x8dct=1 / cqm=0 / deadzone=21,11 / fast_pskip=1 / chroma_qp_offset=-5 / threads=3 / lookahead_threads=1 / sliced_threads=0 / nr=0 / decimate=1 / interlaced=0 / bluray_compat=0 / constrained_intra=0 / fgo=0 / bframes=16 / b_pyramid=2 / b_adapt=2 / b_bias=0 / direct=1 / weightb=1 / open_gop=0 / weightp=2 / keyint=240 / keyint_min=23 / scenecut=40 / intra_refresh=0 / rc_lookahead=60 / rc=crf / mbtree=0 / crf=18.0000 / qcomp=0.70 / qpmin=0 / qpmax=69 / qpstep=4 / vbv_maxrate=62500 / vbv_bufsize=50000 / crf_max=0.0 / nal_hrd=none / filler=0 / ip_ratio=1.40 / pb_ratio=1.30 / aq=2:0.85 / zones=133207,139943,q=30
    Язык                                     : English
    Default                                  : Да
    Forced                                   : Нет
    Коэффициенты матрицы                     : BT.709
    Аудио #1
    Идентификатор                            : 2
    Формат                                   : AC-3
    Формат/Информация                        : Audio Coding 3
    Расширение режима                        : CM (complete main)
    Параметр Endianness формата              : Big
    Идентификатор кодека                     : A_AC3
    Продолжительность                        : 1 ч. 37 м.
    Вид битрейта                             : Постоянный
    Битрейт                                  : 448 Кбит/сек
    Каналы                                   : 6 каналов
    Расположение каналов                     : Front: L C R, Side: L R, LFE
    Частота                                  : 48,0 КГц
    Битовая глубина                          : 16 бит
    Метод сжатия                             : С потерями
    Размер потока                            : 312 Мбайт (11%)
    Заголовок                                : VO (ViruseProject)
    Язык                                     : Russian
    Default                                  : Да
    Forced                                   : Нет
    Аудио #2
    Идентификатор                            : 3
    Формат                                   : AC-3
    Формат/Информация                        : Audio Coding 3
    Расширение режима                        : CM (complete main)
    Параметр Endianness формата              : Big
    Идентификатор кодека                     : A_AC3
    Продолжительность                        : 1 ч. 37 м.
    Вид битрейта                             : Постоянный
    Битрейт                                  : 448 Кбит/сек
    Каналы                                   : 6 каналов
    Расположение каналов                     : Front: L C R, Side: L R, LFE
    Частота                                  : 48,0 КГц
    Битовая глубина                          : 16 бит
    Метод сжатия                             : С потерями
    Размер потока                            : 312 Мбайт (11%)
    Заголовок                                : VO (Kerob)
    Язык                                     : Russian
    Default                                  : Нет
    Forced                                   : Нет
    Аудио #3
    Идентификатор                            : 4
    Формат                                   : AC-3
    Формат/Информация                        : Audio Coding 3
    Расширение режима                        : CM (complete main)
    Параметр Endianness формата              : Big
    Идентификатор кодека                     : A_AC3
    Продолжительность                        : 1 ч. 37 м.
    Вид битрейта                             : Постоянный
    Битрейт                                  : 448 Кбит/сек
    Каналы                                   : 6 каналов
    Расположение каналов                     : Front: L C R, Side: L R, LFE
    Частота                                  : 48,0 КГц
    Битовая глубина                          : 16 бит
    Метод сжатия                             : С потерями
    Размер потока                            : 312 Мбайт (11%)
    Язык                                     : English
    Default                                  : Нет
    Forced                                   : Нет
    Текст #1
    Идентификатор                            : 5
    Формат                                   : UTF-8
    Идентификатор кодека                     : S_TEXT/UTF8
    Идентификатор кодека/Информация          : UTF-8 Plain Text
    Заголовок                                : Notabenoid
    Язык                                     : Russian
    Default                                  : Да
    Forced                                   : Нет
    Текст #2
    Идентификатор                            : 6
    Формат                                   : UTF-8
    Идентификатор кодека                     : S_TEXT/UTF8
    Идентификатор кодека/Информация          : UTF-8 Plain Text
    Язык                                     : English
    Default                                  : Нет
    Forced                                   : Нет
    Текст #3
    Идентификатор                            : 7
    Формат                                   : UTF-8
    Идентификатор кодека                     : S_TEXT/UTF8
    Идентификатор кодека/Информация          : UTF-8 Plain Text
    Заголовок                                : SDH
    Язык                                     : English
    Default                                  : Нет
    Forced                                   : Нет
    Меню
    00:00:00.000                             : :Chapter 01
    00:08:19.999                             : :Chapter 02
    00:15:28.927                             : :Chapter 03
    00:21:52.310                             : :Chapter 04
    00:30:03.384                             : :Chapter 05
    00:35:46.853                             : :Chapter 06
    00:43:07.501                             : :Chapter 07
    00:50:29.484                             : :Chapter 08
    00:58:29.464                             : :Chapter 09
    01:08:47.915                             : :Chapter 10
    01:20:21.525                             : :Chapter 11
    01:32:43.307                             : :Chapter 12

    Скриншоты

    Source vs. Rip

    Скачать .torrent

    Скачать торрент-файл бесплатно и на максимальной скорости!

    Как скачивать? · Что такое торрент? · Рейтинг и ограничения

    !ВНИМАНИЕ!
    Сайт не распространяет и не хранит электронные версии произведений, а занимается лишь лишь предоставлением доступа к создаваемому пользователями каталогу ссылок на торрент-файлы, которые содержат только списки хеш-сумм, убедительная просьба с жалобами обращаться напрямую к пользователю. Файлы для обмена на трекере предоставлены пользователями сайта, и администрация не несёт ответственности за их содержание. Просьба не заливать файлы, защищенные авторскими правами, а также файлы нелегального содержания!

    [Профиль] [ЛС]
    Показать сообщения:    
    Ответить на тему

    Текущее время: Сегодня, в 03:12

    Часовой пояс: GMT + 2



    Вы не можете начинать темы
    Вы не можете отвечать на сообщения
    Вы не можете редактировать свои сообщения
    Вы не можете удалять свои сообщения
    Вы не можете голосовать в опросах
    Вы не можете прикреплять файлы к сообщениям
    Вы не можете скачивать файлы