BitTorrentTracker PerecTracker.org
BitTorrentTracker PerecTracker.org
    
Регистрация  ·  Вход
 
 · 
Забыли пароль?

  • Омерзительная восьмерка / The Hateful Eight (Квентин Тарантино / Quentin Tarantino) [2015, США, триллер, драма, криминал, BDRip-AVC] Dub + Original (eng) + Sub (rus, eng)

    Ответить на тему
     
    Автор Сообщение

    Light

    Создавать темы 13-Май-2016 01:21

           

    [Цитировать]

    Омерзительная восьмерка
    The Hateful Eight
    «Без хорошей причины сюда не лезут»

    Страна: США
    Жанр: триллер, драма, криминал, детектив, вестерн
    Год выпуска: 2015
    Продолжительность: 02:47:45
    Перевод: Профессиональный (полное дублирование) [Лицензия Blu-ray RUS]
    Субтитры: русские (форсированные, полные: Алексей Матвеев, Нотабеноид, Ахметов Руслан), английские (полные, SDH)
    Оригинальная аудиодорожка: английский
    Режиссер: Квентин Тарантино / Quentin Tarantino
    В ролях: Курт Рассел, Сэмюэл Л. Джексон, Тим Рот, Майкл Мэдсен, Дженнифер Джейсон Ли, Уолтон Гоггинс, Демиан Бишир, Брюс Дерн, Джеймс Паркс, Дэна Гурье, Зои Белл, Ли Хорсли
    Описание:
    США после Гражданской войны. Легендарный охотник за головами Джон Рут по кличке Вешатель конвоирует заключенную. По пути к ним прибиваются еще несколько путешественников. Снежная буря вынуждает компанию искать укрытие в лавке на отшибе, где уже расположилось весьма пестрое общество: генерал конфедератов, мексиканец, ковбой... И один из них - не тот, за кого себя выдает.
    Автор рипа: Stalker oK
    Сэмпл
    Качество видео: BDRip-AVC [BLUEBIRD / Blu-ray Disc / 1080p]
    Формат видео: MKV
    Видео кодек: AVC
    Аудио кодек: AC3
    Видео: 1476 Кбит/сек, 1062*386 (2,751), в 23,976 (24000/1001) кадра/сек, AVC
    Аудио #1: русский, 192 Кбит/сек, 48 КГц, 16 бит, 2.0, AC3
    Аудио #2: английский, 192 Кбит/сек, 48 КГц, 16 бит, 2.0, AC3
    Навигация по главам: есть

    MediaInfo

    Общее
    Уникальный идентификатор : 235386375759907564429978589992481825762 (0xB115C45756A57BFA8794B6CCD0B5A3E2)
    Полное имя : M:\1Rips\The Hateful Eight\The.Hateful.Eight.2015.BDRip-AVC.Dub.2.18Gb.stalkerok.new-team.mkv
    Формат : Matroska
    Версия формата : Version 4 / Version 2
    Размер файла : 2,18 Гбайт
    Продолжительность : 2 ч. 47 м.
    Общий поток : 1863 Кбит/сек
    Название фильма : The Hateful Eight (2015) (New-Team) (Rip by Stalker oK)
    Дата кодирования : UTC 2016-05-12 14:47:17
    Программа кодирования : mkvmerge v8.6.1 ('Flying') 64bit
    Библиотека кодирования : libebml v1.3.3 + libmatroska v1.4.4
    Видео
    Идентификатор : 1
    Формат : AVC
    Формат/Информация : Advanced Video Codec
    Профиль формата : High@L4.1
    Параметр CABAC формата : Да
    Параметр ReFrames формата : 14 кадров
    Идентификатор кодека : V_MPEG4/ISO/AVC
    Продолжительность : 2 ч. 47 м.
    Битрейт : 1476 Кбит/сек
    Ширина : 1062 пикселя
    Высота : 386 пикселей
    Соотношение сторон : 2,751
    Режим частоты кадров : Постоянный
    Частота кадров : 23,976 (24000/1001) кадра/сек
    Цветовое пространство : YUV
    Субдискретизация насыщенности : 4:2:0
    Битовая глубина : 8 бит
    Тип развёртки : Прогрессивная
    Бит/(Пиксели*Кадры) : 0.150
    Размер потока : 1,73 Гбайт (79%)
    Заголовок : The Hateful Eight (2015) (New-Team) (Rip by Stalker oK)
    Библиотека кодирования : x264 core 148 r2665kMod a01e339
    Настройки программы : cabac=1 / ref=14 / deblock=1:-3:-2 / analyse=0x3:0x133 / me=umh / subme=11 / psy=1 / fade_compensate=0.00 / psy_rd=1.00:0.00 / mixed_ref=1 / me_range=48 / chroma_me=1 / trellis=2 / 8x8dct=1 / cqm=0 / deadzone=21,11 / fast_pskip=0 / chroma_qp_offset=-2 / threads=12 / lookahead_threads=3 / sliced_threads=0 / nr=0 / decimate=0 / interlaced=0 / bluray_compat=0 / constrained_intra=0 / fgo=0 / bframes=15 / b_pyramid=2 / b_adapt=2 / b_bias=0 / direct=3 / weightb=1 / open_gop=0 / weightp=2 / keyint=240 / keyint_min=23 / scenecut=40 / intra_refresh=0 / rc_lookahead=60 / rc=2pass / mbtree=0 / bitrate=1476 / ratetol=1.0 / qcomp=0.65 / qpmin=0 / qpmax=69 / qpstep=4 / cplxblur=20.0 / qblur=0.5 / vbv_maxrate=50000 / vbv_bufsize=62500 / nal_hrd=none / filler=0 / ip_ratio=1.40 / pb_ratio=1.30 / aq=1:0.85
    Default : Да
    Forced : Нет
    Аудио #1
    Идентификатор : 2
    Формат : AC-3
    Формат/Информация : Audio Coding 3
    Расширение режима : CM (complete main)
    Параметр Endianness формата : Big
    Идентификатор кодека : A_AC3
    Продолжительность : 2 ч. 47 м.
    Вид битрейта : Постоянный
    Битрейт : 192 Кбит/сек
    Каналы : 2 канала
    Расположение каналов : Front: L R
    Частота : 48,0 КГц
    Частота кадров : 31,250 кадров/сек (1536 spf)
    Метод сжатия : С потерями
    Размер потока : 230 Мбайт (10%)
    Язык : Russian
    Default : Да
    Forced : Нет
    Аудио #2
    Идентификатор : 3
    Формат : AC-3
    Формат/Информация : Audio Coding 3
    Расширение режима : CM (complete main)
    Параметр Endianness формата : Big
    Идентификатор кодека : A_AC3
    Продолжительность : 2 ч. 47 м.
    Вид битрейта : Постоянный
    Битрейт : 192 Кбит/сек
    Каналы : 2 канала
    Расположение каналов : Front: L R
    Частота : 48,0 КГц
    Частота кадров : 31,250 кадров/сек (1536 spf)
    Метод сжатия : С потерями
    Размер потока : 230 Мбайт (10%)
    Язык : English
    Default : Нет
    Forced : Нет
    Текст #1
    Идентификатор : 4
    Формат : UTF-8
    Идентификатор кодека : S_TEXT/UTF8
    Идентификатор кодека/Информация : UTF-8 Plain Text
    Продолжительность : 2 ч. 18 м.
    Битрейт : 1 бит/сек
    Count of elements : 13
    Размер потока : 1,02 Кбайт (0%)
    Заголовок : Forced
    Язык : Russian
    Default : Да
    Forced : Нет
    Текст #2
    Идентификатор : 5
    Формат : UTF-8
    Идентификатор кодека : S_TEXT/UTF8
    Идентификатор кодека/Информация : UTF-8 Plain Text
    Продолжительность : 2 ч. 42 м.
    Битрейт : 89 бит/сек
    Count of elements : 1741
    Размер потока : 107 Кбайт (0%)
    Заголовок : Перевод Алексей Матвеев
    Язык : Russian
    Default : Нет
    Forced : Нет
    Текст #3
    Идентификатор : 6
    Формат : UTF-8
    Идентификатор кодека : S_TEXT/UTF8
    Идентификатор кодека/Информация : UTF-8 Plain Text
    Продолжительность : 2 ч. 38 м.
    Битрейт : 96 бит/сек
    Count of elements : 1782
    Размер потока : 112 Кбайт (0%)
    Заголовок : Переведено на Нотабеноиде
    Язык : Russian
    Default : Нет
    Forced : Нет
    Текст #4
    Идентификатор : 7
    Формат : UTF-8
    Идентификатор кодека : S_TEXT/UTF8
    Идентификатор кодека/Информация : UTF-8 Plain Text
    Продолжительность : 2 ч. 38 м.
    Битрейт : 93 бит/сек
    Count of elements : 1705
    Размер потока : 109 Кбайт (0%)
    Заголовок : Перевод Ахметов Руслан
    Язык : Russian
    Default : Нет
    Forced : Нет
    Текст #5
    Идентификатор : 8
    Формат : UTF-8
    Идентификатор кодека : S_TEXT/UTF8
    Идентификатор кодека/Информация : UTF-8 Plain Text
    Продолжительность : 2 ч. 38 м.
    Битрейт : 62 бит/сек
    Count of elements : 2634
    Размер потока : 72,4 Кбайт (0%)
    Заголовок : Full
    Язык : English
    Default : Нет
    Forced : Нет
    Текст #6
    Идентификатор : 9
    Формат : UTF-8
    Идентификатор кодека : S_TEXT/UTF8
    Идентификатор кодека/Информация : UTF-8 Plain Text
    Продолжительность : 2 ч. 47 м.
    Битрейт : 66 бит/сек
    Count of elements : 3046
    Размер потока : 82,1 Кбайт (0%)
    Заголовок : SDH
    Default : Нет
    Forced : Нет
    Меню
    00:00:00.000 : en:Opening Credits
    00:04:33.523 : en:Chapter One: Last Stage to Red Rock
    00:11:36.112 : en:"When the Hangman Catches You, You Hang"
    00:22:01.361 : en:Chapter Two: Son of a Gun
    00:35:02.433 : en:Chapter Three: Minnie's Haberdashery
    00:43:31.900 : en:Frontier Justice
    00:52:12.212 : en:"That Door's a Whore"
    00:59:04.499 : en:"Well cut my legs off and call me shorty!"
    01:08:30.314 : en:"In Cahoots"
    01:16:10.857 : en:Stew
    01:25:18.446 : en:"Startin'to see pictures, ain't ya?"
    01:35:06.492 : en:Chapter Four: Domergue's Got a Secret
    01:42:20.175 : en:"When you get to hell, John, tell'em Daisy Sent You"
    01:50:33.335 : en:"Let's slow it down. Let's slow it way down."
    01:59:32.498 : en:Chapter Five: The Four Passengers
    02:06:43.053 : en:"Are You the Jelly Bean Salesman Around Here?"
    02:13:26.623 : en:"Hello, thank you, goodnight and maybe my name."
    02:19:59.724 : en:Last Chapter: Black Man, White Hell
    02:24:17.023 : en:"OK, bitch, I'll bite"
    02:34:08.113 : en:"Wake Up, White Boy"
    02:39:38.026 : en:The Lincoln Letter
    02:43:22.751 : en:"There Won't Be Many Coming Home"

    Скриншоты

    Скачать .torrent

    Скачать торрент-файл бесплатно и на максимальной скорости!

    Как скачивать? · Что такое торрент? · Рейтинг и ограничения

    !ВНИМАНИЕ!
    Сайт не распространяет и не хранит электронные версии произведений, а занимается лишь лишь предоставлением доступа к создаваемому пользователями каталогу ссылок на торрент-файлы, которые содержат только списки хеш-сумм, убедительная просьба с жалобами обращаться напрямую к пользователю. Файлы для обмена на трекере предоставлены пользователями сайта, и администрация не несёт ответственности за их содержание. Просьба не заливать файлы, защищенные авторскими правами, а также файлы нелегального содержания!


    _________________
    [Профиль] [ЛС]
    Показать сообщения:    
    Ответить на тему

    Текущее время: Сегодня, в 14:39

    Часовой пояс: GMT + 2



    Вы не можете начинать темы
    Вы не можете отвечать на сообщения
    Вы не можете редактировать свои сообщения
    Вы не можете удалять свои сообщения
    Вы не можете голосовать в опросах
    Вы не можете прикреплять файлы к сообщениям
    Вы не можете скачивать файлы