BitTorrentTracker PerecTracker.org
BitTorrentTracker PerecTracker.org
    
Регистрация  ·  Вход
 
 · 
Забыли пароль?

  • Омерзительная восьмерка / The Hateful Eight (Квентин Тарантино / Quentin Tarantino) [2015, США, триллер, драма, криминал, детектив, вестерн, BDRip 1080p] Dub + AVO (Сербин) + 2x VO (Матвеев, Есарев) + Sub Rus, Eng + Original Eng

    Ответить на тему
     
    Автор Сообщение

    Light

    Создавать темы 12-Май-2016 17:05

           

    [Цитировать]

    -Омерзительная восьмерка / The Hateful Eight-Страна: США
    Студия: The Weinstein Company LLC
    Жанр: триллер, драма, криминал, детектив, вестерн
    Год выпуска: 2015
    Продолжительность: 02:47:44-Перевод: Профессиональный (дублированный) BD Rus
    Перевод 2: Любительский (многоголосый закадровый) Paradox & OMSKBIRD records
    Перевод 3: Авторский (одноголосый закадровый) Юрий Сербин
    Перевод 4: Одноголосый закадровый Алексей "Doctor Joker" Матвеев
    Перевод 5: Одноголосый закадровый Дмитрий Есарев
    Cубтитры: русские (Алексей "Doctor Joker" Матвеев, Ахметов Руслан, форсированные), английские (full, SDH)
    Оригинальная аудиодорожка: английский-Режиссер: Квентин Тарантино / Quentin Tarantino
    В ролях: Курт Расселл, Сэмюэл Л. Джексон, Тим Рот, Майкл Мэдсен, Дженнифер Джейсон Ли, Уолтон Гоггинс, Демиан Бишир, Брюс Дерн, Джеймс Паркс, Дэна Гурье, Зои Белл, Ли Хорсли, Джин Джонс, Кит Джеффресон, Крэйг Старк, Белинда Овино, Ченнинг Татум, Брюс Дель Кастилло, Квентин Тарантино-Описание: США после Гражданской войны. Легендарный охотник за головами Джон Рут по кличке Вешатель конвоирует заключенную. По пути к ним прибиваются еще несколько путешественников. Снежная буря вынуждает компанию искать укрытие в лавке на отшибе, где уже расположилось весьма пестрое общество: генерал конфедератов, мексиканец, ковбой… И один из них — не тот, за кого себя выдает.-Сэмпл || Большая просьба мультитрекерами перезаливать только после того, как релиз будет тут роздан на 100%.-Тип релиза: BDRip 1080p
    Контейнер: MKV
    Видео: MPEG-4 AVC Video 9902 kbps 1920x698p / 23.976 fps / High Profile 4.1
    Аудио: Russian DTS Audio 5.1 / 48 kHz / 1509 kbps | Дубляж
    Аудио 2: Russian Dolby Digital Audio 5.1 / 48 kHz / 448 kbps | Paradox & OMSKBIRD records
    Аудио 3: Russian DTS Audio 5.1 / 48 kHz / 1509 kbps | Юрий Сербин
    Аудио 3: Russian DTS Audio 5.1 / 48 kHz / 1509 kbps | Алексей "Doctor Joker" Матвеев
    Аудио 4: Russian DTS Audio 5.1 / 48 kHz / 1509 kbps | Дмитрий Есарев
    Аудио 5: English DTS Audio 5.1 / 48 kHz / 1509 kbps
    Формат субтитров: softsub (SRT)

    Видеоряд от NTb

    Source: The Hateful Eight 2015 1080p Blu-ray AVC DTS-HD MA 5.1-MTeamVideo: 23.976fps 1920x698 x264 10131kbpsAudio: English DTS 5.1 1510kbpsSubtitles: English, English SDH
    Dirty lines fixed, scene also has 3px black on each side which I cropped for better comparison.Source__________________________Encode






    MI

    GeneralUnique ID : 211573895225099826031171324721256718549 (0x9F2BA66822702BD397741613A01BE0D5)Complete name : S:\На хранении\Омерзительная восьмерка (2015. The Hateful Eight).mkvFormat : MatroskaFormat version : Version 4 / Version 2File size : 21.2 GiBDuration : 2h 49mnOverall bit rate : 18.0 MbpsMovie name : Release for RuTrackerEncoded date : UTC 2016-05-11 11:04:34Writing application : mkvmerge v9.0.1 ('Obstacles') 64bitWriting library : libebml v1.3.3 + libmatroska v1.4.4Cover : YesAttachments : cover.jpg
    VideoID : 1Format : AVCFormat/Info : Advanced Video CodecFormat profile : High@L4.1Format settings, CABAC : YesFormat settings, ReFrames : 6 framesCodec ID : V_MPEG4/ISO/AVCDuration : 2h 47mnBit rate : 10.1 MbpsWidth : 1 920 pixelsHeight : 698 pixelsDisplay aspect ratio : 2.751Frame rate mode : ConstantFrame rate : 23.976 (24000/1001) fpsColor space : YUVChroma subsampling : 4:2:0Bit depth : 8 bitsScan type : ProgressiveBits/(Pixel*Frame) : 0.315Stream size : 11.9 GiB (56%)Title : The.Hateful.Eight.2015.1080p.BluRay.DTS.x264-NTbWriting library : x264 core 148 r2638kMod 7599210Encoding settings : cabac=1 / ref=6 / deblock=1:-3:-3 / analyse=0x3:0x133 / me=umh / subme=10 / psy=1 / fade_compensate=0.00 / psy_rd=1.12:0.00 / mixed_ref=1 / me_range=48 / chroma_me=1 / trellis=2 / 8x8dct=1 / cqm=0 / deadzone=21,11 / fast_pskip=1 / chroma_qp_offset=-2 / threads=12 / lookahead_threads=2 / sliced_threads=0 / nr=0 / decimate=1 / interlaced=0 / bluray_compat=0 / constrained_intra=0 / fgo=0 / bframes=8 / b_pyramid=2 / b_adapt=2 / b_bias=0 / direct=3 / weightb=1 / open_gop=0 / weightp=2 / keyint=250 / keyint_min=23 / scenecut=40 / intra_refresh=0 / rc=crf / mbtree=0 / crf=15.5000 / qcomp=0.60 / qpmin=0 / qpmax=69 / qpstep=4 / ip_ratio=1.30 / pb_ratio=1.20 / aq=3:0.70Language : EnglishDefault : YesForced : No
    Audio #1ID : 2Format : DTSFormat/Info : Digital Theater SystemsMode : 16Format settings, Endianness : BigCodec ID : A_DTSDuration : 2h 47mnBit rate mode : ConstantBit rate : 1 509 KbpsChannel(s) : 6 channelsChannel positions : Front: L C R, Side: L R, LFESampling rate : 48.0 KHzFrame rate : 93.750 fps (512 spf)Bit depth : 24 bitsCompression mode : LossyStream size : 1.77 GiB (8%)Title : ДубляжLanguage : RussianDefault : NoForced : No
    Audio #2ID : 3Format : AC-3Format/Info : Audio Coding 3Mode extension : CM (complete main)Format settings, Endianness : BigCodec ID : A_AC3Duration : 2h 47mnBit rate mode : ConstantBit rate : 448 KbpsChannel(s) : 6 channelsChannel positions : Front: L C R, Side: L R, LFESampling rate : 48.0 KHzFrame rate : 31.250 fps (1536 spf)Compression mode : LossyStream size : 538 MiB (2%)Title : MVO [Paradox & Omskbird records]Language : RussianDefault : NoForced : No
    Audio #3ID : 4Format : DTSFormat/Info : Digital Theater SystemsMode : 16Format settings, Endianness : BigCodec ID : A_DTSDuration : 2h 47mnBit rate mode : ConstantBit rate : 1 509 KbpsChannel(s) : 6 channelsChannel positions : Front: L C R, Side: L R, LFESampling rate : 48.0 KHzFrame rate : 93.750 fps (512 spf)Bit depth : 24 bitsCompression mode : LossyStream size : 1.77 GiB (8%)Title : Юрий СербинLanguage : RussianDefault : NoForced : No
    Audio #4ID : 5Format : DTSFormat/Info : Digital Theater SystemsMode : 16Format settings, Endianness : BigCodec ID : A_DTSDuration : 2h 47mnBit rate mode : ConstantBit rate : 1 509 KbpsChannel(s) : 6 channelsChannel positions : Front: L C R, Side: L R, LFESampling rate : 48.0 KHzFrame rate : 93.750 fps (512 spf)Bit depth : 24 bitsCompression mode : LossyStream size : 1.77 GiB (8%)Title : Алексей "Doctor Joker" МатвеевLanguage : RussianDefault : NoForced : No
    Audio #5ID : 6Format : DTSFormat/Info : Digital Theater SystemsMode : 16Format settings, Endianness : BigCodec ID : A_DTSDuration : 2h 47mnBit rate mode : ConstantBit rate : 1 509 KbpsChannel(s) : 6 channelsChannel positions : Front: L C R, Side: L R, LFESampling rate : 48.0 KHzFrame rate : 93.750 fps (512 spf)Bit depth : 24 bitsCompression mode : LossyStream size : 1.77 GiB (8%)Title : Дмитрий ЕсаревLanguage : RussianDefault : NoForced : No
    Audio #6ID : 7Format : DTSFormat/Info : Digital Theater SystemsMode : 16Format settings, Endianness : BigCodec ID : A_DTSDuration : 2h 47mnBit rate mode : ConstantBit rate : 1 509 KbpsChannel(s) : 6 channelsChannel positions : Front: L C R, Side: L R, LFESampling rate : 48.0 KHzFrame rate : 93.750 fps (512 spf)Bit depth : 24 bitsCompression mode : LossyStream size : 1.77 GiB (8%)Language : EnglishDefault : NoForced : No
    Text #1ID : 8Format : UTF-8Codec ID : S_TEXT/UTF8Codec ID/Info : UTF-8 Plain TextDuration : 2h 18mnBit rate : 0 bpsCount of elements : 9Stream size : 559 Bytes (0%)Title : forcedLanguage : RussianDefault : YesForced : No
    Text #2ID : 9Format : UTF-8Codec ID : S_TEXT/UTF8Codec ID/Info : UTF-8 Plain TextDuration : 2h 42mnBit rate : 89 bpsCount of elements : 1741Stream size : 107 KiB (0%)Title : Алексей "Doctor Joker" МатвеевLanguage : RussianDefault : NoForced : No
    Text #3ID : 10Format : UTF-8Codec ID : S_TEXT/UTF8Codec ID/Info : UTF-8 Plain TextDuration : 2h 44mnBit rate : 90 bpsCount of elements : 1706Stream size : 109 KiB (0%)Title : Ахметов РусланLanguage : RussianDefault : NoForced : No
    Text #4ID : 11Format : UTF-8Codec ID : S_TEXT/UTF8Codec ID/Info : UTF-8 Plain TextDuration : 2h 38mnBit rate : 62 bpsCount of elements : 2521Stream size : 72.4 KiB (0%)Language : EnglishDefault : NoForced : No
    Text #5ID : 12Format : UTF-8Codec ID : S_TEXT/UTF8Codec ID/Info : UTF-8 Plain TextDuration : 2h 47mnBit rate : 67 bpsCount of elements : 3045Stream size : 82.9 KiB (0%)Title : SDHLanguage : EnglishDefault : NoForced : No
    Menu00:00:00.000 : en:Opening Credits00:04:33.523 : en:Chapter One: Last Stage to Red Rock00:11:36.112 : en:"When the Hangman Catches You, You Hang"00:22:01.361 : en:Chapter Two: Son of a Gun00:35:02.433 : en:Chapter Three: Minnie's Haberdashery00:43:31.900 : en:Frontier Justice00:52:12.212 : en:"That Door's a Whore"00:59:04.499 : en:"Well Cut My Legs Off and Call Me Shorty!"01:08:30.314 : en:"In Cahoots"01:16:10.857 : en:Stew01:25:18.446 : en:"Startin' to See Pictures, Ain't Ya?"01:35:06.492 : en:Chapter Four: Domergue's Got a Secret01:42:20.175 : en:"When You Get to Hell, John, Tell 'Em Daisy Sent You"01:50:33.335 : en:"Let's Slow It Down. Let's Slow It Way Down."01:59:32.498 : en:Chapter Five: The Four Passengers02:06:43.053 : en:"Are You the Jelly Bean Salesman Around Here?"02:13:26.623 : en:"Hello, Thank You, Good Night, and Maybe My Name"02:19:59.724 : en:Last Chapter: Black Man, White Hell02:24:17.023 : en:"OK, Bitch, I'll Bite"02:34:08.113 : en:"Wake Up, White Boy"02:39:38.026 : en:The Lincoln Letter02:43:22.751 : en:"There Won't Be Many Coming Home"
    Скриншоты


    Зеркало


    Цитата:
    Цитата:

    • За оригинальный Blu-ray спасибо MTeam.
    • Русский дубляж взят с русского блюра от HDCLUB.
    • Перевод Дмитрия Есарева доступен благодаря пользователям "Переулка Переводмана": mv73, mihey10, RW, napaHouk, nortonn, farivan, Wa1ker, DREADG, sa1992, ana2363, ACID, Антиквар, 1woody1, boldino, kidman644, Zedded, igrok2012, maxxsss, sancrew, Прохожий, Loki1982, ZeDOK, sivservik, alis70, Pr0peLLer, shandorra, Tablozar, 1kuzya, Hannabar. Работа со звуком - Переводман.
    • Paradox & OMSKBIRD records. Роли озвучивали: Константин Погодаев, Анна Тух, Павел Ярощик, Александр Дасевич и Максим Максимов. Перевод - Никита Коваль. Удалена реклама.
    • Перевод Doctor_Joker доступен благодаря будулайроманов. Работа со звуком - Переводман.
    • За перевод Юрия Сербина спасибо e180.
    • Чаптеры сохранены и подписаны.
    Скачать .torrent

    Скачать торрент-файл бесплатно и на максимальной скорости!

    Как скачивать? · Что такое торрент? · Рейтинг и ограничения

    !ВНИМАНИЕ!
    Сайт не распространяет и не хранит электронные версии произведений, а занимается лишь лишь предоставлением доступа к создаваемому пользователями каталогу ссылок на торрент-файлы, которые содержат только списки хеш-сумм, убедительная просьба с жалобами обращаться напрямую к пользователю. Файлы для обмена на трекере предоставлены пользователями сайта, и администрация не несёт ответственности за их содержание. Просьба не заливать файлы, защищенные авторскими правами, а также файлы нелегального содержания!


    _________________
    [Профиль] [ЛС]
    Показать сообщения:    
    Ответить на тему

    Текущее время: Сегодня, в 12:46

    Часовой пояс: GMT + 2



    Вы не можете начинать темы
    Вы не можете отвечать на сообщения
    Вы не можете редактировать свои сообщения
    Вы не можете удалять свои сообщения
    Вы не можете голосовать в опросах
    Вы не можете прикреплять файлы к сообщениям
    Вы не можете скачивать файлы