BitTorrentTracker PerecTracker.org
BitTorrentTracker PerecTracker.org
    
Регистрация  ·  Вход
 
 · 
Забыли пароль?

  • Они наблюдают / They\'re Watching (Джей Лендер / Jay Lender / Мика Райт / Micah Wright) [2016, США, Румыния, Ужасы, триллер, комедия, WEB-DLRip] MVO (ViruseProject)

    Ответить на тему
     
    Автор Сообщение

    rechyn

    Создавать темы 12-Май-2016 17:05

           

    [Цитировать]

    Они наблюдают / They're Watching
    Страна: США, Румыния
    Жанр: Ужасы, триллер, комедия
    Год выпуска: 2016
    Продолжительность: 01:34:10
    Перевод: Любительский (многоголосый закадровый) [ViruseProject]
    Cубтитры: нет
    Режиссер: Джей Лендер / Jay Lender / Мика Райт / Micah Wright
    В ролях: Бриджид Брэнно, Крис Лемке, Кэрри Гензел, Дэвид Алпей, Дмитрий Дьяченко, Миа Фэйт, Кристиан Балинт
    Описание: Съёмочная группа американского телешоу для съемок очередного эпизода приезжает в глухую деревню в Молдове. Телевизионщики думают, что отсутствие привычного латте и бесплатного вайфая в гостинице — максимум неприятностей, которые их ожидают. Но на деле съемки оборачиваются кровавым кошмаром, да и местные жители не радушно их встречают. Они совсем не рады, что об их секретах узнает большой мир.
    Сэмпл: http://multi-up.com/1101190
    Качество видео: WEB-DLRip
    Формат видео: AVI
    Видео: XviD 1.2.1, 720x400, (16:9), 23,976 fps, 1877 Кбит/с, 8 бит
    Аудио: Русский (AC-3, 2 ch, 48,0 KHz, 192 Kbps)

    MediaInfo

    Общее
    Полное имя : F:\Видеофильмы\В и д е о\Они наблюдают (ужасы, триллер, комедия 2016г).avi
    Формат : AVI
    Формат/Информация : Audio Video Interleave
    Размер файла : 1,37 Гбайт
    Продолжительность : 1 ч. 34 м.
    Общий поток : 2078 Кбит/сек
    Программа кодирования : VirtualDubMod 1.5.10.2 (build 2540/release)
    Библиотека кодирования : VirtualDubMod build 2540/release
    Видео
    Идентификатор : 0
    Формат : MPEG-4 Visual
    Профиль формата : Advanced Simple@L5
    Параметр BVOP формата : 2
    Параметр QPel формата : Нет
    Параметр GMC формата : Без точки перехода
    Параметр матрицы формата : Default (MPEG)
    Идентификатор кодека : XVID
    Идентификатор кодека/Подсказка : XviD
    Продолжительность : 1 ч. 34 м.
    Битрейт : 1877 Кбит/сек
    Ширина : 720 пикселей
    Высота : 400 пикселей
    Соотношение сторон : 16:9
    Частота кадров : 23,976 (24000/1001) кадра/сек
    Цветовое пространство : YUV
    Субдискретизация насыщенности : 4:2:0
    Битовая глубина : 8 бит
    Тип развёртки : Прогрессивная
    Метод сжатия : С потерями
    Бит/(Пиксели*Кадры) : 0.272
    Размер потока : 1,23 Гбайт (90%)
    Библиотека кодирования : XviD 1.2.1 (UTC 2008-12-04)
    Аудио
    Идентификатор : 1
    Формат : AC-3
    Формат/Информация : Audio Coding 3
    Расширение режима : CM (complete main)
    Параметр Endianness формата : Big
    Идентификатор кодека : 2000
    Продолжительность : 1 ч. 34 м.
    Вид битрейта : Постоянный
    Битрейт : 192 Кбит/сек
    Каналы : 2 канала
    Расположение каналов : Front: L R
    Частота : 48,0 КГц
    Частота кадров : 31,250 кадров/сек (1536 spf)
    Метод сжатия : С потерями
    Размер потока : 129 Мбайт (9%)
    Выравнивание : Разделение по промежуткам
    Продолжительность промежутка : 42 мс. (1,00 видеокадр)
    Время предзагрузки промежутка : 500 мс.

    Скриншот c названием фильма

    Скриншоты

    Скачать .torrent

    Скачать торрент-файл бесплатно и на максимальной скорости!

    Как скачивать? · Что такое торрент? · Рейтинг и ограничения

    !ВНИМАНИЕ!
    Сайт не распространяет и не хранит электронные версии произведений, а занимается лишь лишь предоставлением доступа к создаваемому пользователями каталогу ссылок на торрент-файлы, которые содержат только списки хеш-сумм, убедительная просьба с жалобами обращаться напрямую к пользователю. Файлы для обмена на трекере предоставлены пользователями сайта, и администрация не несёт ответственности за их содержание. Просьба не заливать файлы, защищенные авторскими правами, а также файлы нелегального содержания!


    _________________
    [Профиль] [ЛС]
    Показать сообщения:    
    Ответить на тему

    Текущее время: Сегодня, в 16:38

    Часовой пояс: GMT + 2



    Вы не можете начинать темы
    Вы не можете отвечать на сообщения
    Вы не можете редактировать свои сообщения
    Вы не можете удалять свои сообщения
    Вы не можете голосовать в опросах
    Вы не можете прикреплять файлы к сообщениям
    Вы не можете скачивать файлы