BitTorrentTracker PerecTracker.org
BitTorrentTracker PerecTracker.org
    
Регистрация  ·  Вход
 
 · 
Забыли пароль?

  • Нервы на пределе / High Strung (Роджер Найгард / Roger Nygard) [1991, США, комедия, DVDRip] DVO (ТВ-6 со вставками Визгунов) + AVO (Визгунов)

    Ответить на тему
     
    Автор Сообщение

    Columb

    Создавать темы 16-Фев-2014 10:55

           

    [Цитировать]

    Нервы на пределе / High Strung
    Страна: США
    Жанр: комедия
    Год выпуска: 1991
    Продолжительность: 01:29:33-Перевод 1: Профессиональный (двухголосый закадровый) ТВ-6 со вставками (Визгунов)
    Перевод 2: Авторский (одноголосый закадровый) Сергей Визгунов
    Cубтитры: нет-Режиссер: Роджер Найгард / Roger Nygard
    В ролях: Стив Одекерк, Томас Ф. Уилсон, Дениз Кросби, Фред Уиллард, Джени Лэйн, Кирстен Данст, Эд Уильямс, Айви Остин, Пол Райан, Марк Юджин Робертс, Джим Керри-Описание: Доста-а-а-ли! Затраха… в смысле, замучили! И вообще довели до ручки, чтоб я сдох! Примерно так смотрит на жизнь писатель Тайн. Он сидит дома и сам себя заводит. Все ему не так да не эдак, везде сплошное безобразие! А еще какой-то мужик привязался. Только глаза закроешь — он возникает и говорит издевательски: «Восемь часов!» Да что такое может быть в восемь часов?! А ведь может! Ровно в восемь за Тайном приезжает… не скажу кто, но не из нашего мира, а из потустороннего. Не надо было занудствовать и вякать: «Чтоб я сдох!» — вот и накликал…--Качество видео: DVDRip (DVD5/kwn)
    Формат видео: AVI
    Видео: 688x512 (1.34:1), 25 fps, XviD build 73 ~1927 kbps avg, 0.22 bit/pixel
    Аудио 1: 48 kHz, AC3 Dolby Digital, 2/0 (L,R) ch, ~192 kbps DVO + AVO
    Аудио 2: 48 kHz, AC3 Dolby Digital, 2/0 (L,R) ch, ~192 kbps AVO

    MediaInfo

    General
    Complete name : D:\Релизы\High Strung.1991.DUALRUS.DVDRip.XviD.AC3.avi
    Format : AVI
    Format/Info : Audio Video Interleave
    File size : 1.46 GiB
    Duration : 1h 29mn
    Overall bit rate : 2 327 Kbps
    Writing application : VirtualDubMod 1.5.10.2 (build 2540/release)
    Writing library : VirtualDubMod build 2540/release
    Video
    ID : 0
    Format : MPEG-4 Visual
    Format profile : Advanced Simple@L5
    Format settings, BVOP : 1
    Format settings, QPel : No
    Format settings, GMC : No warppoints
    Format settings, Matrix : Custom
    Codec ID : XVID
    Codec ID/Hint : XviD
    Duration : 1h 29mn
    Bit rate : 1 928 Kbps
    Width : 688 pixels
    Height : 512 pixels
    Display aspect ratio : 4:3
    Frame rate : 25.000 fps
    Color space : YUV
    Chroma subsampling : 4:2:0
    Bit depth : 8 bits
    Scan type : Progressive
    Compression mode : Lossy
    Bits/(Pixel*Frame) : 0.219
    Stream size : 1.21 GiB (83%)
    Writing library : XviD 73
    Audio #1
    ID : 1
    Format : AC-3
    Format/Info : Audio Coding 3
    Mode extension : CM (complete main)
    Format settings, Endianness : Big
    Codec ID : 2000
    Duration : 1h 29mn
    Bit rate mode : Constant
    Bit rate : 192 Kbps
    Channel(s) : 2 channels
    Channel positions : Front: L R
    Sampling rate : 48.0 KHz
    Bit depth : 16 bits
    Compression mode : Lossy
    Delay relative to video : 8ms
    Stream size : 123 MiB (8%)
    Alignment : Split accross interleaves
    Interleave, duration : 40 ms (1.00 video frame)
    Interleave, preload duration : 500 ms
    Audio #2
    ID : 2
    Format : AC-3
    Format/Info : Audio Coding 3
    Mode extension : CM (complete main)
    Format settings, Endianness : Big
    Codec ID : 2000
    Duration : 1h 29mn
    Bit rate mode : Constant
    Bit rate : 192 Kbps
    Channel(s) : 2 channels
    Channel positions : Front: L R
    Sampling rate : 48.0 KHz
    Bit depth : 16 bits
    Compression mode : Lossy
    Delay relative to video : 8ms
    Stream size : 123 MiB (8%)
    Alignment : Split accross interleaves
    Interleave, duration : 40 ms (1.00 video frame)
    Interleave, preload duration : 500 ms

    Скриншоты

    Скачать .torrent

    Скачать торрент-файл бесплатно и на максимальной скорости!

    Как скачивать? · Что такое торрент? · Рейтинг и ограничения

    !ВНИМАНИЕ!
    Сайт не распространяет и не хранит электронные версии произведений, а занимается лишь лишь предоставлением доступа к создаваемому пользователями каталогу ссылок на торрент-файлы, которые содержат только списки хеш-сумм, убедительная просьба с жалобами обращаться напрямую к пользователю. Файлы для обмена на трекере предоставлены пользователями сайта, и администрация не несёт ответственности за их содержание. Просьба не заливать файлы, защищенные авторскими правами, а также файлы нелегального содержания!

    [Профиль] [ЛС]
    Показать сообщения:    
    Ответить на тему

    Текущее время: Сегодня, в 08:09

    Часовой пояс: GMT + 2



    Вы не можете начинать темы
    Вы не можете отвечать на сообщения
    Вы не можете редактировать свои сообщения
    Вы не можете удалять свои сообщения
    Вы не можете голосовать в опросах
    Вы не можете прикреплять файлы к сообщениям
    Вы не можете скачивать файлы