BitTorrentTracker PerecTracker.org
BitTorrentTracker PerecTracker.org
    
Регистрация  ·  Вход
 
 · 
Забыли пароль?

  • Колония Дигнидад / Colonia (Флориан Галленбергер / Florian Gallenberger ) [2015, Германия, Люксембург, Франция , Триллер, драма, мелодрама, история, WEB-DL, HD (7200p)] DUB + Original + sub (eng)

    Ответить на тему
     
    Автор Сообщение

    rechyn

    Создавать темы 12-Май-2016 13:00

           

    [Цитировать]

    Колония Дигнидад / Colonia
    «Escape is the only option»
    7.448 / 10 7.20 / 10
    -Год выпуска: 2015
    Страна: Германия, Люксембург, Франция
    Жанр: Триллер, драма, мелодрама, история
    Продолжительность: 01:49:58
    Перевод: Дублированный (iTunes)
    Оригинальная аудиодорожка: Есть
    Cубтитры: Английские
    Режиссёр: Флориан Галленбергер
    Сценарий: Торстен Вензель, Флориан Галленбергер
    Продюсер: Беньямин Херман, Николас Стейл, Кристиан Бекер
    Оператор: Коля Брандт
    Композитор: Андре Дзезюк, Фернандо Веласкес
    Художник: Бернд Лепель, Тобиас Франк, Пабло Маэстре Галли
    Монтаж: Хансйорг Вайссбрих
    В ролях: Эмма Уотсон, Даниэль Брюль, Микаэл Нюквист, Риченда Кэри, Вики Крипс, Джинн Вернер, Джулиан Овенден, Август Цирнер, Мартин Вуттке, Николас Барсофф
    Бюджет: $14 000 000
    Сборы в США: $15 709
    Сборы в России: $97 422
    Мировая премьера: 13 сентября 2015
    Премьера (РФ): 31 марта 2016, «Cinema Prestige»
    Описание: Немецкий журналист Даниэль похищен в Чили тайной полицией и после немыслимых пыток отправлен в колонию «Дигнидад» — огромное поселение, выдающее себя за благотворительную коммуну, а на самом деле гнездо нацистов — беглецов из Третьего рейха. Колонию возглавляет бывший офицер вермахта, бесноватый проповедник Пауль Шефер, внушающий пастве пользу умерщвления плоти и бесплатного труда от заката до рассвета. В «Дигнидад» легко попасть, но обратной дороги нет. Здесь Даниэлю предстоит превратиться в раба и «материал» для бесчеловечных экспериментов.-Качество исходника: WEB-DL 720p
    Качество: WEB-DL
    Тип: HD (720p)
    Контейнер: M4V
    Видео: H.264, 1280x532, 2.40:1, 4 048 Kbps, 23.976 fps
    Аудио 1: Русский/Дублированный (iTunes), AAC / 2.0 / 157 Kbps / 48.0 KHz
    Аудио 2: Английский/Оригинальная дорожка , AAC / 2.0 / 156 Kbps / 48.0 KHz
    Аудио 3: Русский/Дублированный (iTunes), AC-3 / 5.1 / 384 Kbps / 48.0 KHz
    Аудио 4: Английский/Оригинальная дорожка , AC-3 / 5.1 / 384 Kbps / 48.0 KHz
    Субтитры: Английские полные
    -

    iTunes Meta Tags

    Sort Name: Colonia
    XID: Apple:vendor_id:2015-842913
    contentID: 1087687048
    Copyright: © 2015 Majestic Filmproduktion GMBH / Iris Productions S.a. / Rat Pack Filmproduktion GMBH / Rezo Productions S.a. R.L. / Fred Films Colonia LTD.
    Screenwriters: Торстен Вензель, Флориан Галленбергер
    Producers: Беньямин Херман, Николас Стейл, Кристиан Бекер
    Director: Флориан Галленбергер
    Cast: Эмма Уотсон, Даниэль Брюль, Микаэл Нюквист, Риченда Кэри, Вики Крипс, Джинн Вернер, Джулиан Овенден, Август Цирнер, Мартин Вуттке, Николас Барсофф
    Rating: 0
    Long Description: Немецкий журналист Даниэль похищен в Чили тайной полицией и после немыслимых пыток отправлен в колонию "Дигнидад" - огромное поселение, выдающее себя за благотворительную коммуну, а на самом деле гнездо нацистов - беглецов из Третьего рейха. Колонию возглавляет бывший офицер вермахта, бесноватый проповедник Пауль Шефер, внушающий пастве пользу умерщвления плоти и бесплатного труда от заката до рассвета. В "Дигнидад" легко попасть, но обратной дороги нет. Здесь Даниэлю предстоит превратиться в раба и "материал" для бесчеловечных экспериментов.
    Но подвиги во имя любви совершают не только мужчины. Девушка Даниэля, отважная стюардесса Лена, решает спасти его. В одиночку. Ради любимого она готова на всё и даже больше. Добровольно, под видом послушницы, Лена отправляется в это страшное место...
    Description: Немецкий журналист Даниэль похищен в Чили тайной полицией и после немыслимых пыток отправлен в колонию "Дигнидад" - огромное поселение, выдающее себя за благотворительную коммуну, а на самом деле гнездо нацистов - беглецов из Третьего рейха...
    Release Date: 2015-09-13T08:00:00Z
    Genre: Action & Adventure
    Artist: Florian Gallenberger
    Name: Colonia

    MediaInfo

    General
    Complete name : /Users/imac/HandBrake/Colonia.WEB-DL.720p.m4v
    Format : MPEG-4
    Codec ID : M4V  (M4V /M4A /mp42/isom)
    File size : 3.94 GiB
    Duration : 1h 49mn
    Overall bit rate mode : Variable
    Overall bit rate : 5 136 Kbps
    Movie name : Colonia
    Performer : Florian Gallenberger
    Director : Флориан Галленбергер
    Actor : Эмма Уотсон / Даниэль Брюль / Микаэл Нюквист / Риченда Кэри / Вики Крипс / Джинн Вернер / Джулиан Овенден / Август Цирнер / Мартин Вуттке / Николас Барсофф
    Screenplay by : Торстен Вензель / Флориан Галленбергер
    Producer : Беньямин Херман / Николас Стейл / Кристиан Бекер
    Genre : Action & Adventure
    ContentType : Short Film
    Description : Немецкий журналист Даниэль похищен в Чили тайной полицией и после немыслимых пыток отправлен в колонию "Дигнидад" - огромное поселение, выдающее себя за благотворительную коммуну, а на самом деле гнездо нацистов - беглецов из Третьего рейха...
    Recorded date : UTC 2015-09-13 08:00:00
    Encoded date : UTC 2016-05-12 08:50:45
    Tagged date : UTC 2016-05-12 08:52:21
    Copyright : © 2015 Majestic Filmproduktion GMBH / Iris Productions S.a. / Rat Pack Filmproduktion GMBH / Rezo Productions S.a. R.L. / Fred Films Colonia LTD.
    Cover : Yes
    Rating : None
    Title/Sort : Colonia
    LongDescription : Немецкий журналист Даниэль похищен в Чили тайной полицией и после немыслимых пыток отправлен в колонию "Дигнидад" - огромное поселение, выдающее себя за благотворительную коммуну, а на самом деле гнездо нацистов - беглецов из Третьего рейха. Колонию возглавляет бывший офицер вермахта, бесноватый проповедник Пауль Шефер, внушающий пастве пользу умерщвления плоти и бесплатного труда от заката до рассвета. В "Дигнидад" легко попасть, но обратной дороги нет. Здесь Даниэлю предстоит превратиться в раба и "материал" для бесчеловечных экспериментов. Но подвиги во имя любви совершают не только мужчины. Девушка Даниэля, отважная стюардесса Лена, решает спасти его. В одиночку. Ради любимого она готова на всё и даже больше. Добровольно, под видом послушницы, Лена отправляется в это страшное место...
    HDVideo : Yes
    AppleStoreCatalogID : 1087687048
    Vendor : Apple:vendor_id:2015-842913
    ContentRating : mpaa|Unrated|???|
    Video #1
    ID : 1
    Format : AVC
    Format/Info : Advanced Video Codec
    Format profile : Main@L3.1
    Format settings, CABAC : No
    Format settings, ReFrames : 2 frames
    Format settings, GOP : M=2, N=90
    Codec ID : avc1
    Codec ID/Info : Advanced Video Coding
    Duration : 1h 49mn
    Bit rate : 4 048 Kbps
    Width : 1 280 pixels
    Height : 532 pixels
    Display aspect ratio : 2.40:1
    Frame rate : 23.976 fps
    Color space : YUV
    Chroma subsampling : 4:2:0
    Bit depth : 8 bits
    Scan type : Progressive
    Bits/(Pixel*Frame) : 0.248
    Stream size : 3.11 GiB (79%)
    Title : Main Program
    Language : English
    Encoded date : UTC 2016-05-12 08:50:45
    Tagged date : UTC 2016-05-12 08:51:01
    Color range : Limited
    Color primaries : BT.709
    Transfer characteristics : BT.709
    Matrix coefficients : BT.709
    Menus : 7,8
    Video #2
    ID : 8
    Format : JPEG
    Codec ID : jpeg
    Duration : 1h 49mn
    Bit rate mode : Variable
    Bit rate : 608 bps
    Width : 640 pixels
    Height : 266 pixels
    Display aspect ratio : 2.40:1
    Frame rate mode : Variable
    Frame rate : 0.002 fps
    Minimum frame rate : 0.001 fps
    Maximum frame rate : 0.003 fps
    Color space : YUV
    Chroma subsampling : 4:2:0
    Bit depth : 8 bits
    Compression mode : Lossy
    Bits/(Pixel*Frame) : 1.786
    Stream size : 408 KiB (0%)
    Title : Chapter Images
    Language : English
    Default : No
    Encoded date : UTC 2016-05-12 08:51:04
    Tagged date : UTC 2016-05-12 08:51:04
    Menu For : 1
    Audio #1
    ID : 2
    Format : AAC
    Format/Info : Advanced Audio Codec
    Format profile : LC
    Codec ID : 40
    Duration : 1h 49mn
    Bit rate mode : Variable
    Bit rate : 157 Kbps
    Maximum bit rate : 227 Kbps
    Channel(s) : 2 channels
    Channel positions : Front: L R
    Sampling rate : 48.0 KHz
    Frame rate : 46.875 fps (1024 spf)
    Compression mode : Lossy
    Stream size : 123 MiB (3%)
    Title : Russian Stereo
    Language : Russian
    Default : Yes
    Alternate group : 1
    Encoded date : UTC 2016-05-12 08:50:45
    Tagged date : UTC 2016-05-12 08:50:53
    Fallback From : 4
    Audio #2
    ID : 3
    Format : AAC
    Format/Info : Advanced Audio Codec
    Format profile : LC
    Codec ID : 40
    Duration : 1h 49mn
    Bit rate mode : Variable
    Bit rate : 156 Kbps
    Maximum bit rate : 259 Kbps
    Channel(s) : 2 channels
    Channel positions : Front: L R
    Sampling rate : 48.0 KHz
    Frame rate : 46.875 fps (1024 spf)
    Compression mode : Lossy
    Stream size : 123 MiB (3%)
    Title : English Stereo
    Language : English
    Default : No
    Alternate group : 1
    Encoded date : UTC 2016-05-12 08:50:45
    Tagged date : UTC 2016-05-12 08:50:53
    Fallback From : 5
    Audio #3
    ID : 4
    Format : AC-3
    Format/Info : Audio Coding 3
    Mode extension : CM (complete main)
    Format settings, Endianness : Big
    Codec ID : ac-3
    Duration : 1h 49mn
    Bit rate mode : Constant
    Bit rate : 384 Kbps
    Channel(s) : 6 channels
    Channel positions : Front: L C R, Side: L R, LFE
    Sampling rate : 48.0 KHz
    Frame rate : 31.250 fps (1536 spf)
    Bit depth : 16 bits
    Compression mode : Lossy
    Stream size : 302 MiB (7%)
    Title : Russian DD 5.1
    Language : Russian
    Default : Inherited From: 2
    Alternate group : 1
    Encoded date : UTC 2016-05-12 08:50:45
    Tagged date : UTC 2016-05-12 08:50:53
    Fallback To : 2
    Audio #4
    ID : 5
    Format : AC-3
    Format/Info : Audio Coding 3
    Mode extension : CM (complete main)
    Format settings, Endianness : Big
    Codec ID : ac-3
    Duration : 1h 49mn
    Bit rate mode : Constant
    Bit rate : 384 Kbps
    Channel(s) : 6 channels
    Channel positions : Front: L C R, Side: L R, LFE
    Sampling rate : 48.0 KHz
    Frame rate : 31.250 fps (1536 spf)
    Bit depth : 16 bits
    Compression mode : Lossy
    Stream size : 302 MiB (7%)
    Title : English DD 5.1
    Language : English
    Default : No
    Alternate group : 1
    Encoded date : UTC 2016-05-12 08:50:45
    Tagged date : UTC 2016-05-12 08:50:53
    Fallback To : 3
    Text
    ID : 6
    Format : Timed Text
    Muxing mode : sbtl
    Codec ID : tx3g
    Duration : 1h 43mn
    Bit rate mode : Variable
    Bit rate : 38 bps
    Stream size : 29.0 KiB (0%)
    Title : English full
    Language : English
    Default : Yes
    Forced : No
    Alternate group : 2
    Encoded date : UTC 2016-05-12 08:50:45
    Tagged date : UTC 2016-05-12 08:50:52
    Menu #1
    00:00:00.000 : Chapter 1
    00:12:00.720 : Chapter 2
    00:20:21.220 : Chapter 3
    00:29:54.793 : Chapter 4
    00:40:16.414 : Chapter 5
    00:53:45.222 : Chapter 6
    01:00:05.602 : Chapter 7
    01:13:43.419 : Chapter 8
    01:23:27.002 : Chapter 9
    01:31:10.465 : Chapter 10
    01:44:28.262 : Chapter 11
    Menu #2
    ID : 7
    Codec ID : text
    Duration : 1h 49mn
    Language : English
    Encoded date : UTC 2016-05-12 08:51:01
    Tagged date : UTC 2016-05-12 08:51:01
    Menu For : 1
    00:00:00.000 : Chapter 1
    00:12:00.720 : Chapter 2
    00:20:21.220 : Chapter 3
    00:29:54.793 : Chapter 4
    00:40:16.414 : Chapter 5
    00:53:45.222 : Chapter 6
    01:00:05.602 : Chapter 7
    01:13:43.419 : Chapter 8
    01:23:27.002 : Chapter 9
    01:31:10.465 : Chapter 10
    01:44:28.262 : Chapter 11
    Bit rate mode : VBR

    Скриншоты

    -

    Релиз подготовлен для просмотра на Apple TV, iPad, iPhone, iPod Touch.
    Для просмотра данного релиза на компьютере с ОС Windows рекомендуется использовать VLC media player
    Скачать .torrent

    Скачать торрент-файл бесплатно и на максимальной скорости!

    Как скачивать? · Что такое торрент? · Рейтинг и ограничения

    !ВНИМАНИЕ!
    Сайт не распространяет и не хранит электронные версии произведений, а занимается лишь лишь предоставлением доступа к создаваемому пользователями каталогу ссылок на торрент-файлы, которые содержат только списки хеш-сумм, убедительная просьба с жалобами обращаться напрямую к пользователю. Файлы для обмена на трекере предоставлены пользователями сайта, и администрация не несёт ответственности за их содержание. Просьба не заливать файлы, защищенные авторскими правами, а также файлы нелегального содержания!


    _________________
    [Профиль] [ЛС]
    Показать сообщения:    
    Ответить на тему

    Текущее время: Сегодня, в 16:38

    Часовой пояс: GMT + 2



    Вы не можете начинать темы
    Вы не можете отвечать на сообщения
    Вы не можете редактировать свои сообщения
    Вы не можете удалять свои сообщения
    Вы не можете голосовать в опросах
    Вы не можете прикреплять файлы к сообщениям
    Вы не можете скачивать файлы