BitTorrentTracker PerecTracker.org
BitTorrentTracker PerecTracker.org
    
Регистрация  ·  Вход
 
 · 
Забыли пароль?

  • В активном поиске / How to Be Single (Кристиан Диттер / Christian Ditter) [2016, США, Мелодрама, комедия, BDRip] Dub (Line) + Original (Eng)

    Ответить на тему
     
    Автор Сообщение

    rechyn

    Создавать темы 12-Май-2016 13:00

           

    [Цитировать]

    В активном поиске / How to Be Single-Год выхода: 2016
    Выпущено: США / New Line Cinema, Rickard Pictures
    Жанр: мелодрама, комедия
    Продолжительность: 01:49:49
    Перевод: Профессиональный (полное дублирование) Line
    Субтитры: нет
    Оригинальная аудиодорожка: Английская-Режиссер:
    Кристиан Диттер / Christian Ditter-В ролях:
    Дакота Джонсон, Ребел Уилсон, Элисон Бри, Лесли Манн, Николас Браун, Джейсон Манцукас, Дэймон Уайанс мл., Колин Жост, Джейк Лэси, Андерс Холм, Сара Рамос, Ник Бейтман, Мики Гуч мл., Ванесса Рубио, Зани Джонс Мбаис, Брент Морин, Кэй Кэннон, Джудит Лайтфут Кларк, Патрик Болл, Анна Эйлинсфелд-О фильме:
    Устав от жизни со своим бойфрендом, Элис уходит от него, переезжает к старшей сестре Мэг, находит новую работу и обзаводится новой подругой Робин. Последняя оказывается страстной поклонницей ночных «отжигов» и пытается втянуть Элис в свою безумную жизнь, хотя та предпочитает чинные и продолжительные отношения пьяным знакомствам на вечеринках.-| Сэмпл |-Качество: BDRip [How to Be Single 2016 1080p Blu-ray AVC DTS-HD MA 5.1]
    Формат: AVI
    Видео: 720x304 (2.37:1), 23.976 fps, XviD build 67 ~1507 kbps avg, 0.29 bit/pixel
    Аудио #1: 48 kHz, AC3 Dolby Digital, 2/0 (L,R) ch, ~192 kbps avg (RUS)
    Аудио #2: 48 kHz, AC3 Dolby Digital, 2/0 (L,R) ch, ~192 kbps avg (ENG)
    --

    Скриншоты

    -

    MediaInfo

    General
    Complete name                            : D:\V_aktivnom_poiske_2016_BDRip_Line_by_Dalemake.avi
    Format                                   : AVI
    Format/Info                              : Audio Video Interleave
    File size                                : 1.46 GiB
    Duration                                 : 1h 49mn
    Overall bit rate                         : 1 906 Kbps
    Writing application                      : VirtualDubMod 1.5.10.3 | www.virtualdub-fr.org || (build 2550/release)
    Writing library                          : VirtualDubMod build 2550/release
    Video
    ID                                       : 0
    Format                                   : MPEG-4 Visual
    Format profile                           : Advanced Simple@L5
    Format settings, BVOP                    : 1
    Format settings, QPel                    : No
    Format settings, GMC                     : No warppoints
    Format settings, Matrix                  : Custom
    Codec ID                                 : XVID
    Codec ID/Hint                            : XviD
    Duration                                 : 1h 49mn
    Bit rate                                 : 1 507 Kbps
    Width                                    : 720 pixels
    Height                                   : 304 pixels
    Display aspect ratio                     : 2.35:1
    Frame rate                               : 23.976 (23976/1000) fps
    Color space                              : YUV
    Chroma subsampling                       : 4:2:0
    Bit depth                                : 8 bits
    Scan type                                : Progressive
    Compression mode                         : Lossy
    Bits/(Pixel*Frame)                       : 0.287
    Stream size                              : 1.16 GiB (79%)
    Writing library                          : XviD 67
    Audio #1
    ID                                       : 1
    Format                                   : AC-3
    Format/Info                              : Audio Coding 3
    Mode extension                           : CM (complete main)
    Format settings, Endianness              : Big
    Codec ID                                 : 2000
    Duration                                 : 1h 49mn
    Bit rate mode                            : Constant
    Bit rate                                 : 192 Kbps
    Channel(s)                               : 2 channels
    Channel positions                        : Front: L R
    Sampling rate                            : 48.0 KHz
    Frame rate                               : 31.250 fps (1536 spf)
    Compression mode                         : Lossy
    Stream size                              : 151 MiB (10%)
    Alignment                                : Split accross interleaves
    Interleave, duration                     : 42 ms (1.00 video frame)
    Interleave, preload duration             : 500 ms
    Audio #2
    ID                                       : 2
    Format                                   : AC-3
    Format/Info                              : Audio Coding 3
    Mode extension                           : CM (complete main)
    Format settings, Endianness              : Big
    Codec ID                                 : 2000
    Duration                                 : 1h 49mn
    Bit rate mode                            : Constant
    Bit rate                                 : 192 Kbps
    Channel(s)                               : 2 channels
    Channel positions                        : Front: L R
    Sampling rate                            : 48.0 KHz
    Frame rate                               : 31.250 fps (1536 spf)
    Compression mode                         : Lossy
    Stream size                              : 151 MiB (10%)
    Alignment                                : Split accross interleaves
    Interleave, duration                     : 42 ms (1.00 video frame)
    Interleave, preload duration             : 500 ms
    С появлением лучшего звука рип будет перезалит-
    Скачать .torrent

    Скачать торрент-файл бесплатно и на максимальной скорости!

    Как скачивать? · Что такое торрент? · Рейтинг и ограничения

    !ВНИМАНИЕ!
    Сайт не распространяет и не хранит электронные версии произведений, а занимается лишь лишь предоставлением доступа к создаваемому пользователями каталогу ссылок на торрент-файлы, которые содержат только списки хеш-сумм, убедительная просьба с жалобами обращаться напрямую к пользователю. Файлы для обмена на трекере предоставлены пользователями сайта, и администрация не несёт ответственности за их содержание. Просьба не заливать файлы, защищенные авторскими правами, а также файлы нелегального содержания!


    _________________
    [Профиль] [ЛС]
    Показать сообщения:    
    Ответить на тему

    Текущее время: Сегодня, в 18:03

    Часовой пояс: GMT + 2



    Вы не можете начинать темы
    Вы не можете отвечать на сообщения
    Вы не можете редактировать свои сообщения
    Вы не можете удалять свои сообщения
    Вы не можете голосовать в опросах
    Вы не можете прикреплять файлы к сообщениям
    Вы не можете скачивать файлы