BitTorrentTracker PerecTracker.org
BitTorrentTracker PerecTracker.org
    
Регистрация  ·  Вход
 
 · 
Забыли пароль?

  • Конвой (Алексей Мизгирёв) [2012, Драма, DVDRip-AVC]

    Ответить на тему
     
    Автор Сообщение

    Flirldrerve

    Создавать темы 12-Май-2016 00:44

           

    [Цитировать]

    Конвой
    Жанр: Драма
    Год выпуска: 2012
    Продолжительность: 01:19:53
    Режиссёр: Алексей Мизгирёв
    В ролях:
    • Олег Васильков — Игнат
    • Азамат Нигманов — Артём
    • Дмитрий Куличков — Сержант
    • Даниэла Стоянович — Жена Игната
    Описание: Армейский капитан конвоирует в часть солдата-дезертира. Герои проводят сутки в Москве, в течение которых сталкиваются с реалиями жизни в современном мегаполисе: иногда комичными, иногда трагичными. Возникшая дружба между офицером и солдатом-дезертиром меняет отношение главного героя к жизни. Циничный капитан заново обретает смысл жизни и веру в человека.

    Качество видео: DVDRip-AVC
    Формат видео: MKV
    Видео: x264, 720x544@1009x544, 1.85:1, 25 fps, 1957 kbps
    Аудио: AC3, 48000 Hz, 448 kbps, 5.1
    Аудио 2: AC3, 48000 Hz, 192 kbps, 2.0

    MediaInfo

    General
    Unique ID : 249773865067520880582233117071978605331 (0xBBE8B254C37134029A803A3DBDB52B13)
    Complete name : E:\My Films\Нео-нуар (нуар)\Конвой_2012_AC3_6_ch_2_ch.DVDRip-AVC_by_Indigo-child.mkv
    Format : Matroska
    Format version : Version 4 / Version 2
    File size : 1.45 GiB
    Duration : 1h 19mn
    Overall bit rate : 2 596 Kbps
    Encoded date : UTC 2016-05-11 16:57:26
    Writing application : mkvmerge v6.1.0 ('Old Devil') built on Mar 4 2013 09:10:42
    Writing library : libebml v1.3.0 + libmatroska v1.4.0
    Video
    ID : 1
    Format : AVC
    Format/Info : Advanced Video Codec
    Format profile : High@L4.1
    Format settings, CABAC : Yes
    Format settings, ReFrames : 14 frames
    Codec ID : V_MPEG4/ISO/AVC
    Duration : 1h 19mn
    Bit rate : 1 957 Kbps
    Width : 720 pixels
    Height : 544 pixels
    Display aspect ratio : 1.85:1
    Frame rate mode : Constant
    Frame rate : 25.000 fps
    Color space : YUV
    Chroma subsampling : 4:2:0
    Bit depth : 8 bits
    Scan type : Progressive
    Bits/(Pixel*Frame) : 0.200
    Stream size : 1.06 GiB (73%)
    Writing library : x264 core 130 r2273 b3065e6
    Encoding settings : cabac=1 / ref=14 / deblock=1:-2:-2 / analyse=0x3:0x113 / me=umh / subme=10 / psy=1 / psy_rd=1.00:0.20 / mixed_ref=1 / me_range=24 / chroma_me=1 / trellis=2 / 8x8dct=1 / cqm=0 / deadzone=21,11 / fast_pskip=0 / chroma_qp_offset=-3 / threads=3 / lookahead_threads=1 / sliced_threads=0 / nr=0 / decimate=0 / interlaced=0 / bluray_compat=0 / constrained_intra=0 / bframes=12 / b_pyramid=2 / b_adapt=2 / b_bias=0 / direct=3 / weightb=1 / open_gop=0 / weightp=2 / keyint=250 / keyint_min=25 / scenecut=40 / intra_refresh=0 / rc_lookahead=50 / rc=2pass / mbtree=1 / bitrate=1957 / ratetol=1.0 / qcomp=0.60 / qpmin=0 / qpmax=69 / qpstep=4 / cplxblur=20.0 / qblur=0.5 / ip_ratio=1.40 / aq=2:1.00
    Default : Yes
    Forced : No
    Audio #1
    ID : 2
    Format : AC-3
    Format/Info : Audio Coding 3
    Mode extension : CM (complete main)
    Format settings, Endianness : Big
    Codec ID : A_AC3
    Duration : 1h 19mn
    Bit rate mode : Constant
    Bit rate : 448 Kbps
    Channel(s) : 6 channels
    Channel positions : Front: L C R, Side: L R, LFE
    Sampling rate : 48.0 KHz
    Compression mode : Lossy
    Delay relative to video : 1s 600ms
    Stream size : 256 MiB (17%)
    Title : 5.1
    Language : Russian
    Default : Yes
    Forced : No
    Audio #2
    ID : 3
    Format : AC-3
    Format/Info : Audio Coding 3
    Mode extension : CM (complete main)
    Format settings, Endianness : Big
    Codec ID : A_AC3
    Duration : 1h 19mn
    Bit rate mode : Constant
    Bit rate : 192 Kbps
    Channel(s) : 2 channels
    Channel positions : Front: L R
    Sampling rate : 48.0 KHz
    Compression mode : Lossy
    Delay relative to video : 1s 600ms
    Stream size : 110 MiB (7%)
    Title : 2.0
    Language : Russian
    Default : No
    Forced : No

    Скриншоты


    Сравнение

    http://screenshotcomparison.com/comparison/172636
    http://perectracker.org/http://perectracker.org/viewtopic.php?t=4278187 - недокроп, неверные настройки кодирования
    Скачать .torrent

    Скачать торрент-файл бесплатно и на максимальной скорости!

    Как скачивать? · Что такое торрент? · Рейтинг и ограничения

    !ВНИМАНИЕ!
    Сайт не распространяет и не хранит электронные версии произведений, а занимается лишь лишь предоставлением доступа к создаваемому пользователями каталогу ссылок на торрент-файлы, которые содержат только списки хеш-сумм, убедительная просьба с жалобами обращаться напрямую к пользователю. Файлы для обмена на трекере предоставлены пользователями сайта, и администрация не несёт ответственности за их содержание. Просьба не заливать файлы, защищенные авторскими правами, а также файлы нелегального содержания!


    _________________
    [Профиль] [ЛС]
    Показать сообщения:    
    Ответить на тему

    Текущее время: Сегодня, в 06:06

    Часовой пояс: GMT + 2



    Вы не можете начинать темы
    Вы не можете отвечать на сообщения
    Вы не можете редактировать свои сообщения
    Вы не можете удалять свои сообщения
    Вы не можете голосовать в опросах
    Вы не можете прикреплять файлы к сообщениям
    Вы не можете скачивать файлы