BitTorrentTracker PerecTracker.org
BitTorrentTracker PerecTracker.org
    
Регистрация  ·  Вход
 
 · 
Забыли пароль?

  • Срок жизни / Term Life (Питер Биллингсли / Peter Billingsley) [2016, США, Драма, криминал, WEB-DLRip] VO + Original (Eng) + Subs (Rus, Eng)

    Ответить на тему
     
    Автор Сообщение

    rechyn

    Создавать темы 12-Май-2016 00:44

           

    [Цитировать]

    Срок жизни / Term Life-Год выхода: 2016
    Выпущено: США / Palm-Star Entertainment
    Жанр: драма, криминал
    Продолжительность: 01:32:43
    Перевод: Одноголосый закадровый datynet
    Cубтитры: Русские (Алексей Щуров), Английские (внешние .srt*)
    Оригинальная аудиодорожка: Английская-Режиссер:
    Питер Биллингсли / Peter Billingsley-В ролях:
    Винс Вон, Хейли Стайнфелд, Джон Фавро, Билл Пэкстон, Терренс Ховард, Хорди Молья, Джонатан Бэнкс, Ши Уигхэм, Майк Эппс, Тараджи П. Хенсон, Аннабет Гиш, Мануэль Рульфо, Дэниэл Бернхард, Сесиль Де Франс, Анна Колвелл, Карлос Авилес, Роберт Пралго-О фильме:
    Фильм рассказывает о персонаже по имени Ник Бэрроу, который планирует кражи, а потом продаёт эти проекты тому, кто больше заплатит. Но наступает чёрный день — один из замыслов Ника с треском проваливается, и теперь его смерти жаждут все, начиная с главарей мафии и заканчивая оборотнями в погонах.
    Поняв, что от судьбы не убежишь, герой решает сделать напоследок что-то хорошее — он страхует жизнь на миллион долларов, чтобы после смерти обеспечить свою дочь. Не учитывает Ник только одного — страховка начнет действовать лишь через 21 день, в течение которых герою необходимо оставаться в живых. А это в его ситуации совсем не просто.-Релиз групп
    | | IMDB | КиноПоиск | Сэмпл |-Качество: WEB-DLRip [Term Life 2016 1080p WEB-DL H264 AC3-EVO]
    Формат: AVI
    Видео: 720x304 (2.37:1), 23.976 fps, XviD build 67 ~1854 kbps avg, 0.35 bit/pixel
    Аудио #1: 48 kHz, AC3 Dolby Digital, 3/2 (L,C,R,l,r) + LFE ch, ~384.00 kbps avg (DUB)
    Аудио #2: 48 kHz, AC3 Dolby Digital, 3/2 (L,C,R,l,r) + LFE ch, ~384.00 kbps avg (ENG) отдельно--

    Скриншоты

    -

    MediaInfo

    General
    Complete name                            : D:\Srok_zhizni_2016_WEB-DLRip_VO_by_Dalemake.avi
    Format                                   : AVI
    Format/Info                              : Audio Video Interleave
    File size                                : 1.46 GiB
    Duration                                 : 1h 32mn
    Overall bit rate                         : 2 248 Kbps
    Writing application                      : VirtualDubMod 1.5.10.3 | www.virtualdub-fr.org || (build 2550/release)
    Writing library                          : VirtualDubMod build 2550/release
    Video
    ID                                       : 0
    Format                                   : MPEG-4 Visual
    Format profile                           : Advanced Simple@L5
    Format settings, BVOP                    : 1
    Format settings, QPel                    : No
    Format settings, GMC                     : No warppoints
    Format settings, Matrix                  : Custom
    Codec ID                                 : XVID
    Codec ID/Hint                            : XviD
    Duration                                 : 1h 32mn
    Bit rate                                 : 1 855 Kbps
    Width                                    : 720 pixels
    Height                                   : 304 pixels
    Display aspect ratio                     : 2.35:1
    Frame rate                               : 23.976 (23976/1000) fps
    Color space                              : YUV
    Chroma subsampling                       : 4:2:0
    Bit depth                                : 8 bits
    Scan type                                : Progressive
    Compression mode                         : Lossy
    Bits/(Pixel*Frame)                       : 0.353
    Stream size                              : 1.20 GiB (83%)
    Writing library                          : XviD 67
    Audio
    ID                                       : 1
    Format                                   : AC-3
    Format/Info                              : Audio Coding 3
    Mode extension                           : CM (complete main)
    Format settings, Endianness              : Big
    Codec ID                                 : 2000
    Duration                                 : 1h 32mn
    Bit rate mode                            : Constant
    Bit rate                                 : 384 Kbps
    Channel(s)                               : 6 channels
    Channel positions                        : Front: L C R, Side: L R, LFE
    Sampling rate                            : 48.0 KHz
    Frame rate                               : 31.250 fps (1536 spf)
    Compression mode                         : Lossy
    Stream size                              : 255 MiB (17%)
    Alignment                                : Split accross interleaves
    Interleave, duration                     : 42 ms (1.00 video frame)
    Interleave, preload duration             : 500 ms
    -
    Скачать .torrent

    Скачать торрент-файл бесплатно и на максимальной скорости!

    Как скачивать? · Что такое торрент? · Рейтинг и ограничения

    !ВНИМАНИЕ!
    Сайт не распространяет и не хранит электронные версии произведений, а занимается лишь лишь предоставлением доступа к создаваемому пользователями каталогу ссылок на торрент-файлы, которые содержат только списки хеш-сумм, убедительная просьба с жалобами обращаться напрямую к пользователю. Файлы для обмена на трекере предоставлены пользователями сайта, и администрация не несёт ответственности за их содержание. Просьба не заливать файлы, защищенные авторскими правами, а также файлы нелегального содержания!


    _________________
    [Профиль] [ЛС]
    Показать сообщения:    
    Ответить на тему

    Текущее время: Сегодня, в 02:43

    Часовой пояс: GMT + 2



    Вы не можете начинать темы
    Вы не можете отвечать на сообщения
    Вы не можете редактировать свои сообщения
    Вы не можете удалять свои сообщения
    Вы не можете голосовать в опросах
    Вы не можете прикреплять файлы к сообщениям
    Вы не можете скачивать файлы