BitTorrentTracker PerecTracker.org
BitTorrentTracker PerecTracker.org
    
Регистрация  ·  Вход
 
 · 
Забыли пароль?

  • Мой король / Mon roi / My King / Rien ne sert de courir (Майвенн Ле Беско / Maïwenn Le Besco) [2015, Франция, драма, мелодрама, BDRip] MVO

    Ответить на тему
     
    Автор Сообщение

    Light

    Создавать темы 12-Май-2016 00:44

           

    [Цитировать]

    Мой король / Mon roi / My King /
    Rien ne sert de courir
    Страна: Франция
    Жанр: драма, мелодрама
    Год выпуска: 2015
    Продолжительность: 02:05:08
    Перевод: Профессиональный (многоголосый закадровый)
    Cубтитры: нет
    Режиссер: Майвенн Ле Беско / Maïwenn Le Besco
    В ролях: Венсан Кассель, Эмманюэль Берко, Луи Гаррель, Изильда Ле Беско, Людовик Бертийо, Камилль Коттин, Михаэль Эванс, Патрик Райналь, Янн Говен, Поль Ами, Джемель Барек, Венсан Немет, Дани, Мишель Гомес, Алан Бейгель, Венсан Коломб, Франсуа-Мари Банье
    Описание: История о любви и разрушительной страсти.
    Тони, молодая женщина, проходит курс лечения в реабилитационном центре после травмы колена. Она заново учится ходить, и к физическим страданиям добавляются мучительные воспоминания о прошлой жизни. Её жизнь на протяжении долгих лет состоит в том, чтобы попытаться избавиться от губительного влияния любовника, который разрушает её душу, и от которого у неё есть сын. Ей нужно не только восстановиться физически, но и научиться жить без страха...
    Доп. информация:

    Рип: waarheid
    Сэмпл:

    Качество видео: BDRip [Исходник: BDRemux 1080p / willaf / Кинозал]
    Формат видео: AVI
    Видео: 720x304 (2.37:1), 24.000 fps, XviD build 73 ~1277 kbps avg, 0.24 bit/pixel
    Аудио: 48 kHz, AC3 Dolby Digital, 3/2 (L,C,R,l,r) + LFE ch, ~384 kbps

    MediaInfo

    Общее
    Полное имя : Moy.Korol.2015_BDRip_by_waarheid.avi
    Формат : AVI
    Формат/Информация : Audio Video Interleave
    Размер файла : 1,46 Гбайт
    Продолжительность : 2 ч. 5 м.
    Общий поток : 1671 Кбит/сек
    Программа кодирования : VirtualDubMod 1.5.10.3 | www.virtualdub-fr.org || (build 2550/release)
    Видео
    Идентификатор : 0
    Формат : MPEG-4 Visual
    Профиль формата : Advanced Simple@L5
    Параметр BVOP формата : 1
    Параметр QPel формата : Нет
    Параметр GMC формата : Без точки перехода
    Параметр матрицы формата : Выборочная
    Идентификатор кодека : XVID
    Идентификатор кодека/Подсказка : XviD
    Продолжительность : 2 ч. 5 м.
    Битрейт : 1277 Кбит/сек
    Ширина : 720 пикселей
    Высота : 304 пикселя
    Соотношение сторон : 2,35:1
    Частота кадров : 24,000 кадра/сек
    Цветовое пространство : YUV
    Субдискретизация насыщенности : 4:2:0
    Битовая глубина : 8 бит
    Тип развёртки : Прогрессивная
    Метод сжатия : С потерями
    Бит/(Пиксели*Кадры) : 0.243
    Размер потока : 1,12 Гбайт (76%)
    Библиотека кодирования : XviD 73
    Аудио
    Идентификатор : 1
    Формат : AC-3
    Формат/Информация : Audio Coding 3
    Расширение режима : CM (complete main)
    Параметр Endianness формата : Big
    Идентификатор кодека : 2000
    Продолжительность : 2 ч. 5 м.
    Вид битрейта : Постоянный
    Битрейт : 384 Кбит/сек
    Каналы : 6 каналов
    Расположение каналов : Front: L C R, Side: L R, LFE
    Частота : 48,0 КГц
    Частота кадров : 31,250 кадров/сек (1536 spf)
    Метод сжатия : С потерями
    Размер потока : 344 Мбайт (23%)
    Выравнивание : Разделение по промежуткам
    Продолжительность промежутка : 42 мс. (1,00 видеокадр)
    Время предзагрузки промежутка : 500 мс.

    Скриншот c названием фильма

    Скриншоты

    Скачать .torrent

    Скачать торрент-файл бесплатно и на максимальной скорости!

    Как скачивать? · Что такое торрент? · Рейтинг и ограничения

    !ВНИМАНИЕ!
    Сайт не распространяет и не хранит электронные версии произведений, а занимается лишь лишь предоставлением доступа к создаваемому пользователями каталогу ссылок на торрент-файлы, которые содержат только списки хеш-сумм, убедительная просьба с жалобами обращаться напрямую к пользователю. Файлы для обмена на трекере предоставлены пользователями сайта, и администрация не несёт ответственности за их содержание. Просьба не заливать файлы, защищенные авторскими правами, а также файлы нелегального содержания!


    _________________
    [Профиль] [ЛС]
    Показать сообщения:    
    Ответить на тему

    Текущее время: Сегодня, в 22:29

    Часовой пояс: GMT + 2



    Вы не можете начинать темы
    Вы не можете отвечать на сообщения
    Вы не можете редактировать свои сообщения
    Вы не можете удалять свои сообщения
    Вы не можете голосовать в опросах
    Вы не можете прикреплять файлы к сообщениям
    Вы не можете скачивать файлы