BitTorrentTracker PerecTracker.org
BitTorrentTracker PerecTracker.org
    
Регистрация  ·  Вход
 
 · 
Забыли пароль?

  • Олдбой / Oldboy (Спайк Ли / Spike Lee) [2013, США, триллер, драма, детектив, боевик, HDRip] Dub ([лицензия]) + Original Eng

    Ответить на тему
     
    Автор Сообщение

    Columb

    Создавать темы 16-Фев-2014 10:51

           

    [Цитировать]

    --Олдбой / Oldboy--«Загадка не в том, почему тебя лишили свободы, а почему тебе её вернули»
    --Страна: США
    Жанр: триллер, драма, детектив, боевик
    Год выпуска: 2013
    Продолжительность: 01:43:46-Перевод: Профессиональный (дублированный) [лицензия]
    Cубтитры: нет
    Оригинальная аудиодорожка: английский-Режиссер: Спайк Ли / Spike Lee-В ролях: Джош Бролин, Элизабет Олсен, Шарлто Копли, Сэмюэл Л. Джексон, Майкл Империоли, Пом Клементьефф, Джеймс Рэнсон, Макс Казелла, Линда Эмонд, Элвис Ноласко
    Описание: Фильм рассказывает о рекламщике, которого некто похитил и 20 лет продержал в одиночной камере, никак не объясняя своих мотивов. Столь же неожиданно получив однажды свободу, он решает разыскать того, кто организовал его похищение, и обнаруживает, что неизвестный злодей продолжает мучить его загадками. Погоня за местью приводит его к юной социальной работнице и некоему человеку, в руках которого якобы находится ключ к его спасению.- -Качество видео: HDRip
    Формат видео: AVI
    Видео: XviD, 720x304, 23.976 fps, 1922 Kbps
    Аудио: Русский, AC-3, 48.0 KHz, 6 ch, 448 Kbps
    Аудио 2: Aнглийский, AC-3, 48.0 KHz, 6 ch, 448 Kbps
    -

    MediaInfo

    General
    Complete name : F:\BD torrent\DVDRIPS\OldBoy.2013.D.HDRip.2100MB.avi
    Format : AVI
    Format/Info : Audio Video Interleave
    File size : 2.05 GiB
    Duration : 1h 43mn
    Overall bit rate : 2 832 Kbps
    Writing application : VirtualDubMod 1.5.10.2 (build 2540/release)
    Writing library : VirtualDubMod build 2540/release
    Video
    ID : 0
    Format : MPEG-4 Visual
    Format profile : Advanced Simple@L5
    Format settings, BVOP : 2
    Format settings, QPel : No
    Format settings, GMC : No warppoints
    Format settings, Matrix : Default (MPEG)
    Codec ID : XVID
    Codec ID/Hint : XviD
    Duration : 1h 43mn
    Bit rate : 1 922 Kbps
    Width : 720 pixels
    Height : 304 pixels
    Display aspect ratio : 2.35:1
    Frame rate : 23.976 fps
    Color space : YUV
    Chroma subsampling : 4:2:0
    Bit depth : 8 bits
    Scan type : Progressive
    Compression mode : Lossy
    Bits/(Pixel*Frame) : 0.366
    Stream size : 1.39 GiB (68%)
    Writing library : XviD 1.2.1 (UTC 2008-12-04)
    Audio #1
    ID : 1
    Format : AC-3
    Format/Info : Audio Coding 3
    Mode extension : CM (complete main)
    Format settings, Endianness : Big
    Codec ID : 2000
    Duration : 1h 43mn
    Bit rate mode : Constant
    Bit rate : 448 Kbps
    Channel(s) : 6 channels
    Channel positions : Front: L C R, Side: L R, LFE
    Sampling rate : 48.0 KHz
    Bit depth : 16 bits
    Compression mode : Lossy
    Stream size : 333 MiB (16%)
    Alignment : Split accross interleaves
    Interleave, duration : 42 ms (1.00 video frame)
    Interleave, preload duration : 500 ms
    Audio #2
    ID : 2
    Format : AC-3
    Format/Info : Audio Coding 3
    Mode extension : CM (complete main)
    Format settings, Endianness : Big
    Codec ID : 2000
    Duration : 1h 43mn
    Bit rate mode : Constant
    Bit rate : 448 Kbps
    Channel(s) : 6 channels
    Channel positions : Front: L C R, Side: L R, LFE
    Sampling rate : 48.0 KHz
    Bit depth : 16 bits
    Compression mode : Lossy
    Stream size : 333 MiB (16%)
    Alignment : Split accross interleaves
    Interleave, duration : 42 ms (1.00 video frame)
    Interleave, preload duration : 500 ms

    Скриншот c названием фильма

    Скриншоты

    Скачать .torrent

    Скачать торрент-файл бесплатно и на максимальной скорости!

    Как скачивать? · Что такое торрент? · Рейтинг и ограничения

    !ВНИМАНИЕ!
    Сайт не распространяет и не хранит электронные версии произведений, а занимается лишь лишь предоставлением доступа к создаваемому пользователями каталогу ссылок на торрент-файлы, которые содержат только списки хеш-сумм, убедительная просьба с жалобами обращаться напрямую к пользователю. Файлы для обмена на трекере предоставлены пользователями сайта, и администрация не несёт ответственности за их содержание. Просьба не заливать файлы, защищенные авторскими правами, а также файлы нелегального содержания!

    [Профиль] [ЛС]
    Показать сообщения:    
    Ответить на тему

    Текущее время: Сегодня, в 20:33

    Часовой пояс: GMT + 2



    Вы не можете начинать темы
    Вы не можете отвечать на сообщения
    Вы не можете редактировать свои сообщения
    Вы не можете удалять свои сообщения
    Вы не можете голосовать в опросах
    Вы не можете прикреплять файлы к сообщениям
    Вы не можете скачивать файлы