BitTorrentTracker PerecTracker.org
BitTorrentTracker PerecTracker.org
    
Регистрация  ·  Вход
 
 · 
Забыли пароль?

  • Кровавая леди Батори / Lady of Csejte (Андрей Конст / Andrei Konst) [2015, Россия / США, Enjoy Movies, Glacier Films, Триллер, драма, WEB-DLRip] (|Лицензия|)

    Ответить на тему
     
    Автор Сообщение

    Flirldrerve

    Создавать темы 11-Май-2016 12:29

           

    [Цитировать]

    Кровавая леди Батори / Lady of Csejte
    Страна: Россия / США, Enjoy Movies, Glacier Films
    Жанр: Триллер, драма
    Год выпуска: 2015
    Продолжительность: 01:47:03
    Перевод: Не требуется (Лицензия)
    Cубтитры: нет
    Режиссер: Андрей Конст / Andrei Konst
    В ролях: Светлана Ходченкова, Павел Деревянко, Ада Кондееску, Хория Врачиу, Изабелль Аллен, Лукас Бонд, Лия Синчевич, Александра Пояна, Пауль Дьяконеску, Вирджиния Рогин
    Описание: 17 век... Чейте (Чахтице), королевство Венгрия. В огромном замке, окруженном лесами и горами, живет прекрасная графиня Элизабета Батори. Она умна и красива, элегантна и учтива. И никто не знает, что в замке знаменитой красавицы творятся страшные вещи...
    - Иногда легенды - не вымысел. Такова история самой влиятельной женщины своего времени и самой жестокой убийцы всех времен.
    Сэмпл: http://multi-up.com/1101170
    Качество видео: WEB-DLRip
    Формат видео: AVI
    Видео: XviD 1.2.1, 720x272, (2,647), 24,000 fps, 1490 Кбит/с, 8 бит
    Аудио: Русский (AC-3, 6 ch (Front: L C R, Side: L R, LFE), 48,0 KHz, 448 Kbps)

    MediaInfo

    Общее
    Полное имя : F:\Видеофильмы\В и д е о\Кровавая леди Батори (Триллер 2015год).avi
    Формат : AVI
    Формат/Информация : Audio Video Interleave
    Размер файла : 1,46 Гбайт
    Продолжительность : 1 ч. 47 м.
    Общий поток : 1948 Кбит/сек
    Программа кодирования : VirtualDubMod 1.5.10.3 | www.virtualdub-fr.org || (build 2550/release)
    Библиотека кодирования : VirtualDubMod build 2550/release
    Видео
    Идентификатор : 0
    Формат : MPEG-4 Visual
    Профиль формата : Advanced Simple@L5
    Параметр BVOP формата : 2
    Параметр QPel формата : Нет
    Параметр GMC формата : Без точки перехода
    Параметр матрицы формата : Default (H.263)
    Идентификатор кодека : XVID
    Идентификатор кодека/Подсказка : XviD
    Продолжительность : 1 ч. 47 м.
    Битрейт : 1490 Кбит/сек
    Ширина : 720 пикселей
    Высота : 272 пикселя
    Соотношение сторон : 2,647
    Частота кадров : 24,000 кадра/сек
    Цветовое пространство : YUV
    Субдискретизация насыщенности : 4:2:0
    Битовая глубина : 8 бит
    Тип развёртки : Прогрессивная
    Метод сжатия : С потерями
    Бит/(Пиксели*Кадры) : 0.317
    Размер потока : 1,11 Гбайт (77%)
    Библиотека кодирования : XviD 1.2.1 (UTC 2008-12-04)
    Аудио
    Идентификатор : 1
    Формат : AC-3
    Формат/Информация : Audio Coding 3
    Расширение режима : CM (complete main)
    Параметр Endianness формата : Big
    Идентификатор кодека : 2000
    Продолжительность : 1 ч. 47 м.
    Вид битрейта : Постоянный
    Битрейт : 448 Кбит/сек
    Каналы : 6 каналов
    Расположение каналов : Front: L C R, Side: L R, LFE
    Частота : 48,0 КГц
    Частота кадров : 31,250 кадров/сек (1536 spf)
    Метод сжатия : С потерями
    Размер потока : 343 Мбайт (23%)
    Выравнивание : Разделение по промежуткам
    Продолжительность промежутка : 42 мс. (1,00 видеокадр)
    Время предзагрузки промежутка : 500 мс.

    Скриншот c названием фильма

    Скриншоты

    Скачать .torrent

    Скачать торрент-файл бесплатно и на максимальной скорости!

    Как скачивать? · Что такое торрент? · Рейтинг и ограничения

    !ВНИМАНИЕ!
    Сайт не распространяет и не хранит электронные версии произведений, а занимается лишь лишь предоставлением доступа к создаваемому пользователями каталогу ссылок на торрент-файлы, которые содержат только списки хеш-сумм, убедительная просьба с жалобами обращаться напрямую к пользователю. Файлы для обмена на трекере предоставлены пользователями сайта, и администрация не несёт ответственности за их содержание. Просьба не заливать файлы, защищенные авторскими правами, а также файлы нелегального содержания!


    _________________
    [Профиль] [ЛС]
    Показать сообщения:    
    Ответить на тему

    Текущее время: Сегодня, в 06:29

    Часовой пояс: GMT + 2



    Вы не можете начинать темы
    Вы не можете отвечать на сообщения
    Вы не можете редактировать свои сообщения
    Вы не можете удалять свои сообщения
    Вы не можете голосовать в опросах
    Вы не можете прикреплять файлы к сообщениям
    Вы не можете скачивать файлы