BitTorrentTracker PerecTracker.org
BitTorrentTracker PerecTracker.org
    
Регистрация  ·  Вход
 
 · 
Забыли пароль?

  • Чернокнижник 2: Армагеддон / Warlock: The Armageddon (Энтони Хикокс / Anthony Hickox) [1993, США, ужасы, фэнтези, BDRemux 1080p] Dub (Хлопушка) + MVO (R5/TB3) + MVO (Нева-1) + 3x AVO + Sub Rus, Eng + Original Eng

    Ответить на тему
     
    Автор Сообщение

    Light

    Создавать темы 11-Май-2016 12:29

           

    [Цитировать]

    Чернокнижник 2: Армагеддон / Warlock: The Armageddon
    Страна: США
    Студия: Tapestry Films, Trimark Pictures
    Жанр: ужасы, фэнтези
    Год выпуска: 1993
    Продолжительность: 01:38:08
    Перевод 1: Профессиональный (дублированный) Хлопушка
    Перевод 2: Профессиональный (многоголосый закадровый) R5/TB3
    Перевод 3: Профессиональный (многоголосый закадровый) Нева-1
    Перевод 4: Авторский (одноголосый закадровый) В.Дохалов
    Перевод 5: Авторский (одноголосый закадровый) В.Горчаков
    Перевод 6: Авторский (одноголосый закадровый) Л.Володарский
    Cубтитры: русские, английские (SDH)
    Оригинальная аудиодорожка: английский
    Режиссер: Энтони Хикокс / Anthony Hickox
    В ролях: Джулиан Сэндс, Крис Янг, Пола Маршалл, Джоанна Пакула, Стив Кэхэн, Р.Г. Армстронг, Чарльз Хэллахан, Брюс Гловер, Крэйг Хёрли, Дэвис Гейнс, Ребекка Стрит
    Описание: Чернокнижник, единственный сын Сатаны, вернулся, чтобы найти шесть магических камней, которые были потеряны на протяжении веков. Вместе эти камни создают страшную силу, которая отдает мир во власть Сатаны. В распоряжении Чернокнижника только 7 дней (между солнечным и лунным затмениями), и он неумолим в своих поисках.
    Сила его магии растет по мере получения каждого камня. Но двое влюбленных встают на его пути. Последним из рода священников — Друидов — Кенни и Саманте открывается их предназначение. Они единственные, кто обладает зеленой магией Друидов, которая может остановить Чернокнижника и спасти мир.
    Сэмпл: https://cloud.mail.ru/public/4K57/nF2TBqEQ7
    Тип релиза: BDRemux 1080p
    Контейнер: MKV
    Видео: 1920x1080 at 23.976 fps, MPEG-4 AVC, ~19598 kbps avg - thx Vouka
    Аудио 1: Russian: 48 kHz, AC3, 2/0 (L,R) ch, ~192 kbps avg |Дубляж, Хлопушка|
    Аудио 2: Russian: 48 kHz, AC3, 2/0 (L,R) ch, ~224 kbps avg |Многоголосый закадровый, R5/ТВ3|
    Аудио 3: Russian:48 kHz, AC3, 2/0 (L,R) ch, ~192 kbps avg |Многоголосый закадровый, Нева-1|
    Аудио 4: Russian:48 kHz, AC3, 2/0 (L,R) ch, ~192 kbps avg |Одноголосый закадровый, В.Дохалов|
    Аудио 5: Russian:48 kHz, AC3, 2/0 (L,R) ch, ~192 kbps avg |Одноголосый закадровый, В.Горчаков|
    Аудио 6: Russian:48 kHz, AC3, 2/0 (L,R) ch, ~192 kbps avg |Одноголосый закадровый, Л.Володарский|
    Аудио 7: English:48 kHz, FLAC, 2/0 (L,R) ch, ~642 Kbps kbps avg
    Формат субтитров: softsub (SRT)

    MediaInfo

    General
    Complete name : D:\Warlock.The.Armageddon.1993.1080p.Remux.AVC.6xRus.Eng.FLAC.2.0.mkv
    Format : Matroska
    Format version : Version 4 / Version 2
    File size : 14.7 GiB
    Duration : 1h 38mn
    Overall bit rate mode : Variable
    Overall bit rate : 21.4 Mbps
    Movie name : Warlock:.The.Armageddon.1993.1080p.Remux.AVC.FLAC.2.0-PTP
    Encoded date : UTC 2016-05-10 11:54:45
    Writing application : mkvmerge v9.0.0 ('Power to progress') 64bit
    Writing library : libebml v1.3.3 + libmatroska v1.4.4
    Video
    ID : 1
    Format : AVC
    Format/Info : Advanced Video Codec
    Format profile : High@L4.1
    Format settings, CABAC : Yes
    Format settings, ReFrames : 2 frames
    Format settings, GOP : M=1, N=5
    Codec ID : V_MPEG4/ISO/AVC
    Duration : 1h 38mn
    Bit rate mode : Variable
    Bit rate : 19.6 Mbps
    Maximum bit rate : 30.2 Mbps
    Width : 1 920 pixels
    Height : 1 080 pixels
    Display aspect ratio : 16:9
    Frame rate mode : Constant
    Frame rate : 23.976 (24000/1001) fps
    Color space : YUV
    Chroma subsampling : 4:2:0
    Bit depth : 8 bits
    Scan type : Progressive
    Bits/(Pixel*Frame) : 0.394
    Stream size : 13.4 GiB (91%)
    Language : German
    Default : Yes
    Forced : No
    Audio #1
    ID : 2
    Format : AC-3
    Format/Info : Audio Coding 3
    Mode extension : CM (complete main)
    Format settings, Endianness : Big
    Codec ID : A_AC3
    Duration : 1h 38mn
    Bit rate mode : Constant
    Bit rate : 192 Kbps
    Channel(s) : 2 channels
    Channel positions : Front: L R
    Sampling rate : 48.0 KHz
    Frame rate : 31.250 fps (1536 spf)
    Compression mode : Lossy
    Stream size : 135 MiB (1%)
    Title : Dub - Хлопушка
    Language : Russian
    Default : Yes
    Forced : No
    Audio #2
    ID : 3
    Format : AC-3
    Format/Info : Audio Coding 3
    Mode extension : CM (complete main)
    Format settings, Endianness : Big
    Codec ID : A_AC3
    Duration : 1h 38mn
    Bit rate mode : Constant
    Bit rate : 224 Kbps
    Channel(s) : 2 channels
    Channel positions : Front: L R
    Sampling rate : 48.0 KHz
    Frame rate : 31.250 fps (1536 spf)
    Compression mode : Lossy
    Stream size : 157 MiB (1%)
    Title : MVO - ТВ-3
    Language : Russian
    Default : No
    Forced : No
    Audio #3
    ID : 4
    Format : AC-3
    Format/Info : Audio Coding 3
    Mode extension : CM (complete main)
    Format settings, Endianness : Big
    Codec ID : A_AC3
    Duration : 1h 38mn
    Bit rate mode : Constant
    Bit rate : 192 Kbps
    Channel(s) : 2 channels
    Channel positions : Front: L R
    Sampling rate : 48.0 KHz
    Frame rate : 31.250 fps (1536 spf)
    Compression mode : Lossy
    Stream size : 135 MiB (1%)
    Title : MVO - НЕВА-1
    Language : Russian
    Default : No
    Forced : No
    Audio #4
    ID : 5
    Format : AC-3
    Format/Info : Audio Coding 3
    Mode extension : CM (complete main)
    Format settings, Endianness : Big
    Codec ID : A_AC3
    Duration : 1h 38mn
    Bit rate mode : Constant
    Bit rate : 192 Kbps
    Channel(s) : 2 channels
    Channel positions : Front: L R
    Sampling rate : 48.0 KHz
    Frame rate : 31.250 fps (1536 spf)
    Compression mode : Lossy
    Stream size : 135 MiB (1%)
    Title : AVO - В.Дохалов
    Language : Russian
    Default : No
    Forced : No
    Audio #5
    ID : 6
    Format : AC-3
    Format/Info : Audio Coding 3
    Mode extension : CM (complete main)
    Format settings, Endianness : Big
    Codec ID : A_AC3
    Duration : 1h 38mn
    Bit rate mode : Constant
    Bit rate : 192 Kbps
    Channel(s) : 2 channels
    Channel positions : Front: L R
    Sampling rate : 48.0 KHz
    Frame rate : 31.250 fps (1536 spf)
    Compression mode : Lossy
    Stream size : 135 MiB (1%)
    Title : AVO - В.Горчаков
    Language : Russian
    Default : No
    Forced : No
    Audio #6
    ID : 7
    Format : AC-3
    Format/Info : Audio Coding 3
    Mode extension : CM (complete main)
    Format settings, Endianness : Big
    Codec ID : A_AC3
    Duration : 1h 38mn
    Bit rate mode : Constant
    Bit rate : 192 Kbps
    Channel(s) : 2 channels
    Channel positions : Front: L R
    Sampling rate : 48.0 KHz
    Frame rate : 31.250 fps (1536 spf)
    Compression mode : Lossy
    Stream size : 135 MiB (1%)
    Title : AVO - Л.Володарский
    Language : Russian
    Default : No
    Forced : No
    Audio #7
    ID : 8
    Format : FLAC
    Format/Info : Free Lossless Audio Codec
    Codec ID : A_FLAC
    Duration : 1h 38mn
    Bit rate mode : Variable
    Bit rate : 642 Kbps
    Channel(s) : 2 channels
    Channel positions : Front: L R
    Sampling rate : 48.0 KHz
    Frame rate : 11.719 fps (4096 spf)
    Bit depth : 16 bits
    Stream size : 450 MiB (3%)
    Title : FLAC 2.0
    Writing library : libFLAC 1.2.1 (UTC 2007-09-17)
    Language : English
    Default : No
    Forced : No
    Text #1
    ID : 9
    Format : UTF-8
    Codec ID : S_TEXT/UTF8
    Codec ID/Info : UTF-8 Plain Text
    Duration : 1h 31mn
    Bit rate : 64 bps
    Count of elements : 796
    Stream size : 43.1 KiB (0%)
    Language : Russian
    Default : No
    Forced : No
    Text #2
    ID : 10
    Format : UTF-8
    Codec ID : S_TEXT/UTF8
    Codec ID/Info : UTF-8 Plain Text
    Duration : 1h 29mn
    Bit rate : 37 bps
    Count of elements : 824
    Stream size : 24.8 KiB (0%)
    Title : SDH
    Language : English
    Default : No
    Forced : No
    Menu
    00:00:00.000 : en:Prologue
    00:05:57.732 : en:Warlock
    00:17:44.063 : en:Prevision
    00:27:02.621 : en:Risen
    00:33:49.027 : en:Dead Bird
    00:39:37.375 : en:Druid Training
    00:50:25.022 : en:The Trap
    00:57:52.469 : en:The Next Stone
    01:03:16.001 : en:The Rebirth
    01:13:42.418 : en:United Warriors
    01:25:37.132 : en:The Fight
    01:33:50.625 : en:Armageddon

    Скриншоты

    Скачать .torrent

    Скачать торрент-файл бесплатно и на максимальной скорости!

    Как скачивать? · Что такое торрент? · Рейтинг и ограничения

    !ВНИМАНИЕ!
    Сайт не распространяет и не хранит электронные версии произведений, а занимается лишь лишь предоставлением доступа к создаваемому пользователями каталогу ссылок на торрент-файлы, которые содержат только списки хеш-сумм, убедительная просьба с жалобами обращаться напрямую к пользователю. Файлы для обмена на трекере предоставлены пользователями сайта, и администрация не несёт ответственности за их содержание. Просьба не заливать файлы, защищенные авторскими правами, а также файлы нелегального содержания!


    _________________
    [Профиль] [ЛС]
    Показать сообщения:    
    Ответить на тему

    Текущее время: Сегодня, в 10:49

    Часовой пояс: GMT + 2



    Вы не можете начинать темы
    Вы не можете отвечать на сообщения
    Вы не можете редактировать свои сообщения
    Вы не можете удалять свои сообщения
    Вы не можете голосовать в опросах
    Вы не можете прикреплять файлы к сообщениям
    Вы не можете скачивать файлы