BitTorrentTracker PerecTracker.org
BitTorrentTracker PerecTracker.org
    
Регистрация  ·  Вход
 
 · 
Забыли пароль?

  • Путь на юг / Southbound (Роксанна Бенжамин, Дэвид Брукнер, Патрик Хорват / Roxanne Benjamin, David Bruckner, Patrick Horvath) [2015, США, ужасы, фантастика, триллер, WEB-DL 720p] VO + Sub Eng + Original Eng

    Ответить на тему
     
    Автор Сообщение

    Light

    Создавать темы 11-Май-2016 12:29

           

    [Цитировать]

    Путь на юг / Southbound
    Страна: США
    Жанр: ужасы, фантастика, триллер
    Год выпуска: 2015
    Продолжительность: 01:29:03
      -Перевод: Одноголосый закадровый Д. Есарев
      Перевод: Одноголосый закадровый Д. Есарев присутствует ненормативная лексика
        -Cубтитры: английские
        Оригинальная аудиодорожка: английский
          -Режиссер: Роксанна Бенжамин, Дэвид Брукнер, Патрик Хорват / Roxanne Benjamin, David Bruckner, Patrick Horvath
            -В ролях: Чад Виллелла, Мэттью Беттинелли, Кристина Пешич, Фаббианн Терез, Натали Лав, Ханна Маркс, Дэна Гулд, Энесса Ремси, Сьюзэн Бурк, Дэйв Джонсон
            Описание: Пустынный участок дороги, усталые путники – двое мужчин, бегущих от своего прошлого, группа на пути к следующему концерту, человек пытающийся попасть домой, брат в поисках давно потерянной сестры и семьи на отдыхе – вынуждены противостоять своим страхам и самым темным тайнам, чтобы раскаяться на дороге.
            Релиз от:
              -Тип релиза: WEB-DL 720p
              Контейнер: MKV
                -Видео: MPEG4 Video (H264) 1280x544p, ~ 3920 kbps, 23.976 fps
                  -Аудио 1: Russian: 48 kHz, AC3, 3/2 (L,C,R,l,r) + LFE ch, ~448 kbps avg | Д. Есарев
                  Аудио 2: Russian: 48 kHz, AC3, 3/2 (L,C,R,l,r) + LFE ch, ~448 kbps avg | Д. Есарев (нецензурный)
                  Аудио 3: English: 48 kHz, AC3, 3/2 (L,C,R,l,r) + LFE ch, ~384 kbps avg

                  MediaInfo

                  General
                  Полное имя : D:\Southbound.720p.WEB-DL.mkv
                  Формат : Matroska
                  Размер файла : 3.30 GiB
                  Продолжительность : 1h 29mn
                  Общий поток : 5 305 Kbps
                  Фильм : Southbound (2015)
                  Дата кодирования : UTC 2016-05-08 12:27:22
                  Программа-кодировщик : mkvmerge v8.2.0 ('World of Adventure') 64bit
                  Библиотека кодирования : libebml v1.3.1 + libmatroska v1.4.2
                  Обложка : Yes
                  Video
                  Идентификатор : 1
                  Формат : AVC
                  Формат/Информация : Advanced Video Codec
                  Профайл формата : Main@L3.1
                  Параметры CABAC формата : No
                  Параметры ReFrames формата : 2 frames
                  Режим смешивания : Container profile=Unknown@3.1
                  Идентификатор кодека : V_MPEG4/ISO/AVC
                  Продолжительность : 1h 28mn
                  Битрейт : 3 920 Kbps
                  Ширина : 1 280 pixels
                  Высота : 544 pixels
                  Соотношение кадра : 2.35:1
                  Частота кадров : 23.976 fps
                  Разрешение : 24 bits
                  Колориметрия : 4:2:0
                  Тип развёртки : Progressive
                  Бит/(Пиксели*Кадры) : 0.235
                  Размер потока : 2.44 GiB (74%)
                  Заголовок : Release for HDCLUB
                  Color primaries : BT.709-5, BT.1361, IEC 61966-2-4, SMPTE RP177
                  Transfer characteristics : BT.709-5, BT.1361
                  Matrix coefficients : BT.709-5, BT.1361, IEC 61966-2-4 709, SMPTE RP177
                  Audio #1
                  Идентификатор : 2
                  Формат : AC-3
                  Формат/Информация : Audio Coding 3
                  Идентификатор кодека : A_AC3
                  Продолжительность : 1h 29mn
                  Вид битрейта : Constant
                  Битрейт : 448 Kbps
                  Канал(ы) : 6 channels
                  Расположение каналов : Front: L C R, Surround: L R, LFE
                  Частота : 48.0 KHz
                  Размер потока : 285 MiB (8%)
                  Заголовок : Есарев
                  Язык : Russian
                  Audio #2
                  Идентификатор : 3
                  Формат : AC-3
                  Формат/Информация : Audio Coding 3
                  Идентификатор кодека : A_AC3
                  Продолжительность : 1h 29mn
                  Вид битрейта : Constant
                  Битрейт : 448 Kbps
                  Канал(ы) : 6 channels
                  Расположение каналов : Front: L C R, Surround: L R, LFE
                  Частота : 48.0 KHz
                  Размер потока : 285 MiB (8%)
                  Заголовок : Есарев, нецензурный
                  Язык : Russian
                  Audio #3
                  Идентификатор : 4
                  Формат : AC-3
                  Формат/Информация : Audio Coding 3
                  Идентификатор кодека : A_AC3
                  Продолжительность : 1h 29mn
                  Вид битрейта : Constant
                  Битрейт : 384 Kbps
                  Канал(ы) : 6 channels
                  Расположение каналов : Front: L C R, Surround: L R, LFE
                  Частота : 48.0 KHz
                  Размер потока : 245 MiB (7%)
                  Text
                  Идентификатор : 5
                  Формат : UTF-8
                  Идентификатор кодека : S_TEXT/UTF8
                  Идентификатор кодека/Информация : UTF-8 Plain Text
                  Menu
                  00:00:00.000 : en:The Way Out
                  00:12:52.000 : en:Siren
                  00:33:20.000 : en:The Accident
                  00:52:56.000 : en:Jailbreak
                  01:06:28.000 : en:The Way In

                  Скриншоты

                  Скачать .torrent

                  Скачать торрент-файл бесплатно и на максимальной скорости!

                  Как скачивать? · Что такое торрент? · Рейтинг и ограничения

                  !ВНИМАНИЕ!
                  Сайт не распространяет и не хранит электронные версии произведений, а занимается лишь лишь предоставлением доступа к создаваемому пользователями каталогу ссылок на торрент-файлы, которые содержат только списки хеш-сумм, убедительная просьба с жалобами обращаться напрямую к пользователю. Файлы для обмена на трекере предоставлены пользователями сайта, и администрация не несёт ответственности за их содержание. Просьба не заливать файлы, защищенные авторскими правами, а также файлы нелегального содержания!


                  _________________
                  [Профиль] [ЛС]
                  Показать сообщения:    
                  Ответить на тему

                  Текущее время: Сегодня, в 12:50

                  Часовой пояс: GMT + 2



                  Вы не можете начинать темы
                  Вы не можете отвечать на сообщения
                  Вы не можете редактировать свои сообщения
                  Вы не можете удалять свои сообщения
                  Вы не можете голосовать в опросах
                  Вы не можете прикреплять файлы к сообщениям
                  Вы не можете скачивать файлы