BitTorrentTracker PerecTracker.org
BitTorrentTracker PerecTracker.org
    
Регистрация  ·  Вход
 
 · 
Забыли пароль?

  • Седьмая мишень / La 7eme cible (Клод Пиното / Claude Pinoteau) [1984, Франция, триллер, драма, мелодрама, BDRip 720p] Dub (Мосфильм) + DVO + Original Fre + Sub Fre, Eng

    Ответить на тему
     
    Автор Сообщение

    Light

    Создавать темы 11-Май-2016 12:29

           

    [Цитировать]

    Седьмая мишень / La 7eme cible-Страна: Франция
    Студия: Gaumont International, Production Marcel Dassault
    Жанр: триллер, драма, мелодрама
    Год выпуска: 1984
    Продолжительность: 01:48:14-Перевод 1: Профессиональный (дублированный) - Киностудия "Мосфильм" + фрагменты закадрового перевода
    Перевод 2: Профессиональный (двухголосый закадровый)
    Cубтитры: Французские (Forced, SDH), английские (Full)
    Оригинальная аудиодорожка: французская-Режиссер: Клод Пиното / Claude Pinoteau
    В ролях: Лино Вентура, Леа Массари, Жан Пуарэ, Роже Планшон, Элизабет Буржин, Беатрис Аженен, Жан-Пьер Бакри, Роберт Хоффманн, Майкл Моррис, Эрик Демарец- | Релиз: -Описание: В промозглый вечер Бастьен становится жертвой неизвестных, жестоко избивших его ни за что ни про что. Полагая, что это случайность, Бастьен попробовал забыть произошедшее с ним, но дальнейшие события заставили его задуматься…-Доп. информация:
    - В советском прокате фильм был купирован. Отсутствующие в дубляже "Мосфильма" фрагменты восполнены закадровым переводом.
    - За исходную дорожку с дубляжом "Мосфильма" спасибо Профессор Фэйт.
    - За исходную дорожку с закадровым переводом спасибо Alec Storm.
    - Работа со звуком, субтитрами - xfiles.
    - Рип SbR.-Семпл: http://sendfile.su/1232743-Тип релиза: BDRip 720p
    Контейнер: MKV
    Видео: 1196x720 (1.66:1), 24.000 fps, x264, 11700 kbps
    Аудио 1: Русский, 48.0 KHz, AC3, 1 ch, 192 kbps - Дубляж | "Мосфильм"
    Аудио 2: Русский, 48.0 KHz, AC3, 1 ch, 192 kbps - Закадровый
    Аудио 3: French, 48.0 KHz, FLAC, 2 ch, 284 kbps

    MediaInfo

    GeneralUnique ID : 197069128727932160633496675186471621116 (0x94422234788E635F8B590D8E60A851FC)Complete name : La.7eme.cible.1984.BDRip.720p-rutracker.mkvFormat : MatroskaFormat version : Version 4 / Version 2File size : 9.35 GiBDuration : 1h 48mnOverall bit rate mode : VariableOverall bit rate : 12.4 MbpsMovie name : La.7eme.cible.1984.BDRip.720p-rutrackerEncoded date : UTC 2016-05-10 16:13:50Writing application : mkvmerge v8.3.0 ('Over the Horizon') 64bitWriting library : libebml v1.3.1 + libmatroska v1.4.2Cover : YesAttachments : Cover.jpg
    VideoID : 1Format : AVCFormat/Info : Advanced Video CodecFormat profile : High@L4.1Format settings, CABAC : YesFormat settings, ReFrames : 9 framesCodec ID : V_MPEG4/ISO/AVCDuration : 1h 48mnNominal bit rate : 11.7 MbpsWidth : 1 196 pixelsHeight : 720 pixelsDisplay aspect ratio : 5:3Frame rate mode : ConstantFrame rate : 24.000 fpsColor space : YUVChroma subsampling : 4:2:0Bit depth : 8 bitsScan type : ProgressiveBits/(Pixel*Frame) : 0.566Title : SbRWriting library : x264 core 146 r0+2586 e393126 t_mod_Custom [8-bit@all X86_64]Encoding settings : cabac=1 / ref=9 / deblock=1:-3:-3 / analyse=0x3:0x133 / me=umh / subme=10 / psy=1 / fade_compensate=0.00 / psy_rd=1.10:0.05 / mixed_ref=1 / me_range=24 / chroma_me=1 /trellis=2 / 8x8dct=1 / cqm=0 / deadzone=21,11 / fast_pskip=0 / chroma_qp_offset=-3 / threads=6 / lookahead_threads=1 / sliced_threads=0 / nr=0 / decimate=1 / interlaced=0 / bluray_compat=0 / constrained_intra=0 /fgo=0 / bframes=11 / b_pyramid=2 / b_adapt=2 / b_bias=0 / direct=3 / weightb=1 / open_gop=0 / weightp=2 / keyint=250 / keyint_min=24 / scenecut=40 / intra_refresh=0 / rc=2pass / mbtree=0 / bitrate=11700 /ratetol=1.0 / qcomp=0.70 / qpmin=0:0:0 / qpmax=69:69:69 / qpstep=4 / cplxblur=20.0 / qblur=0.5 / ip_ratio=1.30 / pb_ratio=1.20 / aq=1:0.60 / aq-sensitivity=10.00 / aq-factor=1.00:1.00:1.00 / aq2=1:0.50 /aq2-sensitivity=15.00 / aq2-factor=1.00:1.00:1.00 / aq3=1:[0.45:0.45]:[0.45:0.45]:[0.45:0.45]:[0.45:0.45] / aq3-sensitivity=10.00 / aq3-factor=[1.00:1.00]:[1.00:1.00]:[1.00:1.00] / aq3-boundary=192:64:24Language : EnglishDefault : YesForced : NoColor range : LimitedMatrix coefficients : BT.709
    Audio #1ID : 2Format : AC-3Format/Info : Audio Coding 3Mode extension : CM (complete main)Format settings, Endianness : BigCodec ID : A_AC3Duration : 1h 48mnBit rate mode : ConstantBit rate : 192 KbpsChannel(s) : 1 channelChannel positions : Front: CSampling rate : 48.0 KHzFrame rate : 31.250 fps (1536 spf)Compression mode : LossyStream size : 149 MiB (2%)Title : Дубляж | "Мосфильм"Language : RussianDefault : YesForced : No
    Audio #2ID : 3Format : AC-3Format/Info : Audio Coding 3Mode extension : CM (complete main)Format settings, Endianness : BigCodec ID : A_AC3Duration : 1h 48mnBit rate mode : ConstantBit rate : 192 KbpsChannel(s) : 1 channelChannel positions : Front: CSampling rate : 48.0 KHzFrame rate : 31.250 fps (1536 spf)Compression mode : LossyStream size : 149 MiB (2%)Title : ЗакадровыйLanguage : RussianDefault : NoForced : No
    Audio #3ID : 4Format : FLACFormat/Info : Free Lossless Audio CodecCodec ID : A_FLACDuration : 1h 48mnBit rate mode : VariableChannel(s) : 2 channelsChannel positions : Front: L RSampling rate : 48.0 KHzBit depth : 16 bitsWriting library : libFLAC 1.2.1 (UTC 2007-09-17)Language : FrenchDefault : NoForced : No
    Text #1ID : 5Format : UTF-8Codec ID : S_TEXT/UTF8Codec ID/Info : UTF-8 Plain TextTitle : ForcedLanguage : FrenchDefault : NoForced : No
    Text #2ID : 6Format : UTF-8Codec ID : S_TEXT/UTF8Codec ID/Info : UTF-8 Plain TextTitle : SDHLanguage : FrenchDefault : NoForced : No
    Text #3ID : 7Format : UTF-8Codec ID : S_TEXT/UTF8Codec ID/Info : UTF-8 Plain TextLanguage : EnglishDefault : NoForced : No
    Menu00:00:00.000 : en:00:00:00.00000:09:17.166 : en:00:09:17.16600:17:37.750 : en:00:17:37.75000:26:51.665 : en:00:26:51.66500:35:31.375 : en:00:35:31.37500:43:13.791 : en:00:43:13.79100:54:13.958 : en:00:54:13.95801:03:21.291 : en:01:03:21.29101:12:47.957 : en:01:12:47.95701:23:27.457 : en:01:23:27.45701:30:35.750 : en:01:30:35.75001:39:21.957 : en:01:39:21.957

    Скриншоты

    Скачать .torrent

    Скачать торрент-файл бесплатно и на максимальной скорости!

    Как скачивать? · Что такое торрент? · Рейтинг и ограничения

    !ВНИМАНИЕ!
    Сайт не распространяет и не хранит электронные версии произведений, а занимается лишь лишь предоставлением доступа к создаваемому пользователями каталогу ссылок на торрент-файлы, которые содержат только списки хеш-сумм, убедительная просьба с жалобами обращаться напрямую к пользователю. Файлы для обмена на трекере предоставлены пользователями сайта, и администрация не несёт ответственности за их содержание. Просьба не заливать файлы, защищенные авторскими правами, а также файлы нелегального содержания!


    _________________
    [Профиль] [ЛС]
    Показать сообщения:    
    Ответить на тему

    Текущее время: Сегодня, в 10:20

    Часовой пояс: GMT + 2



    Вы не можете начинать темы
    Вы не можете отвечать на сообщения
    Вы не можете редактировать свои сообщения
    Вы не можете удалять свои сообщения
    Вы не можете голосовать в опросах
    Вы не можете прикреплять файлы к сообщениям
    Вы не можете скачивать файлы