BitTorrentTracker PerecTracker.org
BitTorrentTracker PerecTracker.org
    
Регистрация  ·  Вход
 
 · 
Забыли пароль?

  • Виноградник / Tierra De Sangre / The Vineyard (Джеймс Кац / James Katz) [2014, Чили, Фэнтези, триллер, драма, HDRip] MVO (Лицензия)

    Ответить на тему
     
    Автор Сообщение

    Light

    Создавать темы 11-Май-2016 12:29

           

    [Цитировать]

    Виноградник / Tierra De Sangre / The Vineyard
    Страна: Чили
    Жанр: Фэнтези, триллер, драма
    Год выпуска: 2014
    Продолжительность: 01:42:22
    Перевод: Профессиональный (многоголосый закадровый) [ Лицензия ]
    Cубтитры: нет
    Режиссер: Джеймс Кац / James Katz
    В ролях: Айслинн Дербес, Орельен Вик, Хосе Мария Де Тавира, Франсиско Писарро Саэнс де Уртури, Марк Уейлер, Алиша Ситон, Уильям Чарлтон, Николас Сааведра, Эрто Пантоха, Камила Иране
    Описание: «Tierra De Sangre» - так называется виноградник. Переводится «Земля крови». В 2014 году два американца-туриста решили его посетить. Но они даже не предполагали, какие приключения их здесь ожидают. Невероятным способом они оказываются… в 1864 году. Там они узнают историю любви. Хозяин виноградника, француз по имени Луи и Магдалена полюбили друг друга. Их любовь счастливо завершилась свадьбой. Но тут появился Этьен. Он стал контролировать виноградник. Как только младший братец стал жить вместе с Луи, тот услышал страшные истории у жителей деревень. Якобы появилось чудовище, выпивающее из людей кровь. Магдалена все больше думает, что Этьен и чудовище – одно и то же лицо. Но потом она узнает правду, которая шокирует ее - в чем заключается суть Луи и Этьена, и какую власть на самом деле имеет обычная с виду виноградная лоза.
    Доп. информация:
    Сэмпл: http://sendfile.su/1232633
    Качество видео: HDRip (Кинозал)
    Формат видео: AVI
    Видео: XviD 1.2.1, 720x304, (2,35:1), 25,000 fps, 1839 Кбит/с, 8 бит
    Аудио: Русский (АС3, 2 ch, 48,0 KHz, 192 Kbps)

    MediaInfo

    Общее
    Полное имя : F:\Видеофильмы\В и д е о\Виноградник (Фэнтези, триллер 2014).avi
    Формат : AVI
    Формат/Информация : Audio Video Interleave
    Размер файла : 1,46 Гбайт
    Продолжительность : 1 ч. 42 м.
    Общий поток : 2040 Кбит/сек
    Программа кодирования : VirtualDubMod 1.5.10.2 (build 2540/release)
    Библиотека кодирования : VirtualDubMod build 2540/release
    Видео
    Идентификатор : 0
    Формат : MPEG-4 Visual
    Профиль формата : Advanced Simple@L5
    Параметр BVOP формата : 2
    Параметр QPel формата : Нет
    Параметр GMC формата : Без точки перехода
    Параметр матрицы формата : Default (MPEG)
    Идентификатор кодека : XVID
    Идентификатор кодека/Подсказка : XviD
    Продолжительность : 1 ч. 42 м.
    Битрейт : 1839 Кбит/сек
    Ширина : 720 пикселей
    Высота : 304 пикселя
    Соотношение сторон : 2,35:1
    Частота кадров : 25,000 кадров/сек
    Цветовое пространство : YUV
    Субдискретизация насыщенности : 4:2:0
    Битовая глубина : 8 бит
    Тип развёртки : Прогрессивная
    Метод сжатия : С потерями
    Бит/(Пиксели*Кадры) : 0.336
    Размер потока : 1,31 Гбайт (90%)
    Библиотека кодирования : XviD 1.2.1 (UTC 2008-12-04)
    Аудио
    Идентификатор : 1
    Формат : AC-3
    Формат/Информация : Audio Coding 3
    Расширение режима : CM (complete main)
    Параметр Endianness формата : Big
    Идентификатор кодека : 2000
    Продолжительность : 1 ч. 42 м.
    Вид битрейта : Постоянный
    Битрейт : 192 Кбит/сек
    Каналы : 2 канала
    Расположение каналов : Front: L R
    Частота : 48,0 КГц
    Частота кадров : 31,250 кадров/сек (1536 spf)
    Метод сжатия : С потерями
    Размер потока : 141 Мбайт (9%)
    Выравнивание : Разделение по промежуткам
    Продолжительность промежутка : 40 мс. (1,00 видеокадр)
    Время предзагрузки промежутка : 500 мс.

    Скриншот c названием фильма

    Скриншоты









    Скачать .torrent

    Скачать торрент-файл бесплатно и на максимальной скорости!

    Как скачивать? · Что такое торрент? · Рейтинг и ограничения

    !ВНИМАНИЕ!
    Сайт не распространяет и не хранит электронные версии произведений, а занимается лишь лишь предоставлением доступа к создаваемому пользователями каталогу ссылок на торрент-файлы, которые содержат только списки хеш-сумм, убедительная просьба с жалобами обращаться напрямую к пользователю. Файлы для обмена на трекере предоставлены пользователями сайта, и администрация не несёт ответственности за их содержание. Просьба не заливать файлы, защищенные авторскими правами, а также файлы нелегального содержания!


    _________________
    [Профиль] [ЛС]
    Показать сообщения:    
    Ответить на тему

    Текущее время: Сегодня, в 22:03

    Часовой пояс: GMT + 2



    Вы не можете начинать темы
    Вы не можете отвечать на сообщения
    Вы не можете редактировать свои сообщения
    Вы не можете удалять свои сообщения
    Вы не можете голосовать в опросах
    Вы не можете прикреплять файлы к сообщениям
    Вы не можете скачивать файлы