BitTorrentTracker PerecTracker.org
BitTorrentTracker PerecTracker.org
    
Регистрация  ·  Вход
 
 · 
Забыли пароль?

  • Дэдпул / Deadpool (Тим Миллер / Tim Miller) [2016, США, Канада, фантастика, боевик, приключения, BDRemux 1080p] Dub + VO (Евгений Гаевский) + VO (zamez) + Sub Rus, Eng, Ukr + Original Eng

    Ответить на тему
     
    Автор Сообщение

    Light

    Создавать темы 11-Май-2016 00:03

           

    [Цитировать]

    -Дэдпул / Deadpool-Страна: США, Канада
    Студия: 20th Century Fox Film Corporation
    Жанр: фантастика, боевик, приключения
    Год выпуска: 2016
    Продолжительность: 01:48:06-Перевод: Профессиональный (дублированный)
    Перевод 2: Одноголосый закадровый Евгений Гаевский
    Перевод 3: Одноголосый закадровый zamez (цензурный и ненормативный)
    Cубтитры: русские, английские, украинские
    Оригинальная аудиодорожка: английский-Режиссер: Тим Миллер / Tim Miller
    В ролях: Райан Рейнольдс, Морена Баккарин, Эд Скрейн, ТиДжей Миллер, Джина Карано, Брианна Хилдебранд, Стефан Капичич, Лесли Уггэмс, Джед Риис, Каран Сони, Майкл Беняер, Стайл Дэйн, Кайл Кэсси, Тэйлор Хиксон, Айзи, Наика Туссэн, Рендал Ридер, Айзек С. Синглтон мл., Джастин Шиппелт, Донна Ямамото-Описание: Уэйд Уилсон — наёмник. Будучи побочным продуктом программы вооружённых сил под названием «Оружие X», Уилсон приобрёл невероятную силу, проворство и способность к исцелению. Но страшной ценой: его клеточная структура постоянно меняется, а здравомыслие сомнительно. Всё, чего Уилсон хочет, — это держаться на плаву в социальной выгребной яме. Но течение в ней слишком быстрое.-Сэмпл-Тип релиза: BDRemux 1080p
    Контейнер: MKV
    Видео: MPEG-4 AVC Video 23880 kbps 1080p / 23.976 fps / 16:9 / High Profile 4.1
    Аудио: Russian / DTS Audio / 5.1 / 48 kHz / 768 kbps | Дубляж
    Аудио 2: DTS-HD Master Audio Russian 7.1 / 48 kHz / 4822 kbps / 24-bit (DTS Core: 5.1-ES / 48 kHz / 1509 kbps / 24-bit) | Гаевский
    Аудио 3: Russian / Dolby Digital Audio / 2.0 / 48 kHz / 192 kbps | zamez (ненормативный)
    Аудио 4: Russian / Dolby Digital Audio / 2.0 / 48 kHz / 192 kbps | zamez (цензурный)
    Аудио 5: DTS-HD Master Audio English 7.1 / 48 kHz / 4892 kbps / 24-bit (DTS Core: 5.1-ES / 48 kHz / 1509 kbps / 24-bit)
    Аудио 6: Ukrainian / Dolby Digital Audio / 5.1 / 48 kHz / 448 kbps
    Формат субтитров: softsub (SRT)

    MI

    GeneralUnique ID : 172043196866092141267277060677899920536 (0x816E5080453B3A85ABBE58C8D6E02498)Complete name : S:\На хранении\Дэдпул (2016. Deadpool).mkvFormat : MatroskaFormat version : Version 4 / Version 2File size : 26.4 GiBDuration : 1h 48mnOverall bit rate mode : VariableOverall bit rate : 34.9 MbpsMovie name : Release for RuTrackerEncoded date : UTC 2016-05-08 06:19:31Writing application : mkvmerge v9.0.1 ('Obstacles') 64bitWriting library : libebml v1.3.3 + libmatroska v1.4.4Cover : YesAttachments : cover.jpeg
    VideoID : 1Format : AVCFormat/Info : Advanced Video CodecFormat profile : High@L4.1Format settings, CABAC : YesFormat settings, ReFrames : 4 framesCodec ID : V_MPEG4/ISO/AVCDuration : 1h 48mnBit rate mode : VariableBit rate : 23.7 MbpsMaximum bit rate : 33.0 MbpsWidth : 1 920 pixelsHeight : 1 080 pixelsDisplay aspect ratio : 16:9Frame rate mode : ConstantFrame rate : 23.976 (24000/1001) fpsColor space : YUVChroma subsampling : 4:2:0Bit depth : 8 bitsScan type : ProgressiveBits/(Pixel*Frame) : 0.476Stream size : 17.9 GiB (68%)Language : EnglishDefault : YesForced : No
    Audio #1ID : 2Format : DTSFormat/Info : Digital Theater SystemsMode : 16Format settings, Endianness : BigCodec ID : A_DTSDuration : 1h 48mnBit rate mode : ConstantBit rate : 768 KbpsChannel(s) : 6 channelsChannel positions : Front: L C R, Side: L R, LFESampling rate : 48.0 KHzFrame rate : 93.750 fps (512 spf)Bit depth : 24 bitsCompression mode : LossyStream size : 594 MiB (2%)Title : ДубляжLanguage : RussianDefault : YesForced : No
    Audio #2ID : 3Format : DTSFormat/Info : Digital Theater SystemsFormat profile : MA / ES Matrix / CoreMode : 16Format settings, Endianness : BigCodec ID : A_DTSDuration : 1h 48mnBit rate mode : Variable / Constant / ConstantBit rate : 4 822 Kbps / 1 509 Kbps / 1 509 KbpsChannel(s) : 8 channels / 7 channels / 6 channelsChannel positions : Front: L C R, Side: L R, Back: L R, LFE / Front: L C R, Side: L R, Back: C, LFE / Front: L C R, Side: L R, LFESampling rate : 48.0 KHzFrame rate : 93.750 fps (512 spf)Bit depth : 24 bitsCompression mode : Lossless / Lossy / LossyStream size : 3.64 GiB (14%)Title : Евгений ГаевскийLanguage : RussianDefault : NoForced : No
    Audio #3ID : 4Format : AC-3Format/Info : Audio Coding 3Mode extension : CM (complete main)Format settings, Endianness : BigCodec ID : A_AC3Duration : 1h 48mnBit rate mode : ConstantBit rate : 192 KbpsChannel(s) : 2 channelsChannel positions : Front: L RSampling rate : 48.0 KHzFrame rate : 31.250 fps (1536 spf)Compression mode : LossyStream size : 149 MiB (1%)Title : zamez (ненормативный)Language : RussianDefault : NoForced : No
    Audio #4ID : 5Format : AC-3Format/Info : Audio Coding 3Mode extension : CM (complete main)Format settings, Endianness : BigCodec ID : A_AC3Duration : 1h 48mnBit rate mode : ConstantBit rate : 192 KbpsChannel(s) : 2 channelsChannel positions : Front: L RSampling rate : 48.0 KHzFrame rate : 31.250 fps (1536 spf)Compression mode : LossyStream size : 149 MiB (1%)Title : zamez (цензурный)Language : RussianDefault : NoForced : No
    Audio #5ID : 6Format : DTSFormat/Info : Digital Theater SystemsFormat profile : MA / ES Matrix / CoreMode : 16Format settings, Endianness : BigCodec ID : A_DTSDuration : 1h 48mnBit rate mode : Variable / Constant / ConstantBit rate : 4 892 Kbps / 1 509 Kbps / 1 509 KbpsChannel(s) : 8 channels / 7 channels / 6 channelsChannel positions : Front: L C R, Side: L R, Back: L R, LFE / Front: L C R, Side: L R, Back: C, LFE / Front: L C R, Side: L R, LFESampling rate : 48.0 KHzFrame rate : 93.750 fps (512 spf)Bit depth : 24 bitsCompression mode : Lossless / Lossy / LossyStream size : 3.69 GiB (14%)Language : EnglishDefault : NoForced : No
    Audio #6ID : 7Format : AC-3Format/Info : Audio Coding 3Mode extension : CM (complete main)Format settings, Endianness : BigCodec ID : A_AC3Duration : 1h 48mnBit rate mode : ConstantBit rate : 448 KbpsChannel(s) : 6 channelsChannel positions : Front: L C R, Side: L R, LFESampling rate : 48.0 KHzFrame rate : 31.250 fps (1536 spf)Compression mode : LossyStream size : 346 MiB (1%)Language : UkrainianDefault : NoForced : No
    Text #1ID : 8Format : UTF-8Codec ID : S_TEXT/UTF8Codec ID/Info : UTF-8 Plain TextDuration : 1h 33mnBit rate : 0 bpsCount of elements : 3Stream size : 136 Bytes (0%)Title : forcedLanguage : RussianDefault : YesForced : No
    Text #2ID : 9Format : UTF-8Codec ID : S_TEXT/UTF8Codec ID/Info : UTF-8 Plain TextDuration : 1h 47mnBit rate : 88 bpsCount of elements : 1403Stream size : 69.4 KiB (0%)Language : RussianDefault : NoForced : No
    Text #3ID : 10Format : UTF-8Codec ID : S_TEXT/UTF8Codec ID/Info : UTF-8 Plain TextDuration : 1h 44mnBit rate : 56 bpsCount of elements : 1383Stream size : 43.1 KiB (0%)Language : EnglishDefault : NoForced : No
    Text #4ID : 11Format : UTF-8Codec ID : S_TEXT/UTF8Codec ID/Info : UTF-8 Plain TextDuration : 1h 47mnBit rate : 64 bpsCount of elements : 1853Stream size : 50.5 KiB (0%)Title : SDHLanguage : EnglishDefault : NoForced : No
    Text #5ID : 12Format : UTF-8Codec ID : S_TEXT/UTF8Codec ID/Info : UTF-8 Plain TextDuration : 1h 47mnBit rate : 0 bpsCount of elements : 13Stream size : 591 Bytes (0%)Title : forcedLanguage : UkrainianDefault : NoForced : No
    Text #6ID : 13Format : UTF-8Codec ID : S_TEXT/UTF8Codec ID/Info : UTF-8 Plain TextDuration : 1h 47mnBit rate : 92 bpsCount of elements : 1420Stream size : 73.0 KiB (0%)Language : UkrainianDefault : NoForced : No
    Text #7ID : 14Format : UTF-8Codec ID : S_TEXT/UTF8Codec ID/Info : UTF-8 Plain TextDuration : 1h 47mnBit rate : 140 bpsCount of elements : 2352Stream size : 111 KiB (0%)Title : Commentary with director Tim Miller and Deadpool co-creator Rob LiefeldLanguage : EnglishDefault : NoForced : No
    Text #8ID : 15Format : UTF-8Codec ID : S_TEXT/UTF8Codec ID/Info : UTF-8 Plain TextDuration : 1h 48mnBit rate : 155 bpsCount of elements : 2421Stream size : 123 KiB (0%)Title : Commentary with director Tim Miller and Deadpool co-creator Rob Liefeld SDHLanguage : EnglishDefault : NoForced : No
    Text #9ID : 16Format : UTF-8Codec ID : S_TEXT/UTF8Codec ID/Info : UTF-8 Plain TextDuration : 1h 47mnBit rate : 136 bpsCount of elements : 1963Stream size : 108 KiB (0%)Title : Commentary with Ryan Reynolds and writers Paul Wernick and Rhett ReeseLanguage : EnglishDefault : NoForced : No
    Text #10ID : 17Format : UTF-8Codec ID : S_TEXT/UTF8Codec ID/Info : UTF-8 Plain TextDuration : 1h 47mnBit rate : 142 bpsCount of elements : 1994Stream size : 113 KiB (0%)Title : Commentary with Ryan Reynolds and writers Paul Wernick and Rhett Reese SDHLanguage : EnglishDefault : NoForced : No
    Menu00:00:00.000 : en:Chapter 100:03:04.726 : en:Chapter 200:05:53.019 : en:Chapter 300:09:30.820 : en:Chapter 400:13:19.089 : en:Chapter 500:16:48.716 : en:Chapter 600:20:12.544 : en:Chapter 700:22:06.408 : en:Chapter 800:27:09.628 : en:Chapter 900:31:58.958 : en:Chapter 1000:36:51.709 : en:Chapter 1100:41:06.172 : en:Chapter 1200:44:45.766 : en:Chapter 1300:46:56.605 : en:Chapter 1400:50:10.966 : en:Chapter 1500:53:18.028 : en:Chapter 1600:55:33.038 : en:Chapter 1700:59:07.752 : en:Chapter 1801:03:05.239 : en:Chapter 1901:07:06.439 : en:Chapter 2001:09:15.568 : en:Chapter 2101:12:29.720 : en:Chapter 2201:16:46.393 : en:Chapter 2301:20:43.713 : en:Chapter 2401:25:53.398 : en:Chapter 2501:31:03.791 : en:Chapter 2601:34:46.972 : en:Chapter 2701:39:52.736 : en:Chapter 28
    Скриншоты

    Зеркало


    Цитата:
    Цитата:

    • Перевод Гаевского доступен благодаря: RW, napaHouk, boldino, kidman644, sivservik, scobra, ZeDOK, Старый, Pr0peLLer, RafL, bulovs, Loki1982, Антиквар, sancrew, ACID. Работа со звуком - sashock86..
    • За дубляж спасибо HDClub!
    Скачать .torrent

    Скачать торрент-файл бесплатно и на максимальной скорости!

    Как скачивать? · Что такое торрент? · Рейтинг и ограничения

    !ВНИМАНИЕ!
    Сайт не распространяет и не хранит электронные версии произведений, а занимается лишь лишь предоставлением доступа к создаваемому пользователями каталогу ссылок на торрент-файлы, которые содержат только списки хеш-сумм, убедительная просьба с жалобами обращаться напрямую к пользователю. Файлы для обмена на трекере предоставлены пользователями сайта, и администрация не несёт ответственности за их содержание. Просьба не заливать файлы, защищенные авторскими правами, а также файлы нелегального содержания!


    _________________
    [Профиль] [ЛС]
    Показать сообщения:    
    Ответить на тему

    Текущее время: Сегодня, в 04:13

    Часовой пояс: GMT + 2



    Вы не можете начинать темы
    Вы не можете отвечать на сообщения
    Вы не можете редактировать свои сообщения
    Вы не можете удалять свои сообщения
    Вы не можете голосовать в опросах
    Вы не можете прикреплять файлы к сообщениям
    Вы не можете скачивать файлы