BitTorrentTracker PerecTracker.org
BitTorrentTracker PerecTracker.org
    
Регистрация  ·  Вход
 
 · 
Забыли пароль?

  • Срок / Livstid (Ульф Квенслер / Ulf Kvensler) [2012, Швеция, триллер, драма, BDRemux 1080i] MVO + Original (Swe) + Sub (Swe, Eng, Fin, Nor)

    Ответить на тему
     
    Автор Сообщение

    Light

    Создавать темы 11-Май-2016 00:03

           

    [Цитировать]

    Срок / Livstid

    -
    -Страна: Швеция
    Студия: Yellow Bird Films, Degeto Film, TV4 Nordisk Television
    Жанр: триллер, драма
    Год выпуска: 2012
    Продолжительность: 01:28:32--Перевод: Профессиональный (многоголосый закадровый)
    Cубтитры: шведские, английские, финские, норвежские
    Оригинальная аудиодорожка: шведский--Режиссер: Ульф Квенслер / Ulf Kvensler
    В ролях: Малин Крепин, Бьёрн Чьелльман, Лейф Андре, Кайса Эрнст, Эрик Йоханссон, Феликс Энгстрем, Кандиду Ричард Ульфзэтер, Моа Гаммель, Жозефин Борнебуш, Мария Кулле--Описание: Дэвид Линдхольм, самый известный полицейский Швеции, обнаружен застреленным в собственной постели. Теперь его жене Джулии грозит пожизненное заключение за убийство, а его четырехлетний сын пропал. Однако, Анника уверена, что полицейского убила совсем другая женщина…-- | | Сэмпл--Тип релиза: BDRemux 1080i [Livstid 2012 1080p Blu-ray AVC DTS-HD MA 5.1-THECAVE]
    Контейнер: MKV
    Видео: MPEG-4 AVC / 27957 kbps / 1920x1080 / 25 fps / 16:9 / High Profile 4.1
    Аудио 1: Russian AC3 / 2.0 / 48 kHz / 192 kbps / 16 bits |MVO|
    Аудио 2: Swedish DTS-HD Master Audio / 5.1 / 48 kHz / 3648 kbps / 24 bits (DTS Core: 5.1 / 48 kHz / 1509 kbps / 24 bits / DN -4dB) |original|
    Формат субтитров: softsub [SRT]

    MediaInfo

    Общее
    Уникальный идентификатор                 : 184239910371654609954353521798713086382 (0x8A9B50E793F42D4DA5149B435BEE91AE)
    Полное имя                               : G:\HD\Срок.2012.Blu-Ray.Remux.(1080i).mkv
    Формат                                   : Matroska
    Версия формата                           : Version 4 / Version 2
    Размер файла                             : 19,7 Гбайт
    Продолжительность                        : 1 ч. 28 м.
    Режим общего битрейта                    : Переменный
    Общий поток                              : 31,8 Мбит/сек
    Дата кодирования                         : UTC 2016-05-08 12:41:48
    Программа кодирования                    : mkvmerge v9.1.0 ('Little Earthquakes') 64bit
    Библиотека кодирования                   : libebml v1.3.3 + libmatroska v1.4.4
    Attachments                              : poster.jpg
    Видео
    Идентификатор                            : 1
    Формат                                   : AVC
    Формат/Информация                        : Advanced Video Codec
    Профиль формата                          : High@L4.1
    Параметр CABAC формата                   : Да
    Параметр ReFrames формата                : 3 кадра
    Параметр GOP формата                     : M=3, N=12
    Идентификатор кодека                     : V_MPEG4/ISO/AVC
    Продолжительность                        : 1 ч. 28 м.
    Вид битрейта                             : Переменный
    Битрейт                                  : 28,0 Мбит/сек
    Максимальный битрейт                     : 35,0 Мбит/сек
    Ширина                                   : 1920 пикселей
    Высота                                   : 1080 пикселей
    Соотношение сторон                       : 16:9
    Режим частоты кадров                     : Переменный
    Частота кадров                           : 50,000 кадров/сек
    Частота кадров в оригинале               : 25,000 кадров/сек
    Стандарт вещания                         : NTSC
    Цветовое пространство                    : YUV
    Субдискретизация насыщенности            : 4:2:0
    Битовая глубина                          : 8 бит
    Тип развёртки                            : Чересстрочная
    Метод сохранения типа развёртки          : Раздельные поля
    Порядок развёртки                        : Верхнее поле первое
    Бит/(Пиксели*Кадры)                      : 0.270
    Размер потока                            : 17,3 Гбайт (88%)
    Default                                  : Да
    Forced                                   : Нет
    Цветовой диапазон                        : Limited
    Основные цвета                           : BT.709
    Характеристики трансфера                 : BT.709
    Коэффициенты матрицы                     : BT.709
    Аудио #1
    Идентификатор                            : 2
    Формат                                   : AC-3
    Формат/Информация                        : Audio Coding 3
    Расширение режима                        : CM (complete main)
    Параметр Endianness формата              : Big
    Идентификатор кодека                     : A_AC3
    Продолжительность                        : 1 ч. 28 м.
    Вид битрейта                             : Постоянный
    Битрейт                                  : 192 Кбит/сек
    Каналы                                   : 2 канала
    Расположение каналов                     : Front: L R
    Частота                                  : 48,0 КГц
    Частота кадров                           : 31,250 кадров/сек (1536 spf)
    Метод сжатия                             : С потерями
    Размер потока                            : 122 Мбайт (1%)
    Заголовок                                : MVO
    Язык                                     : Russian
    Default                                  : Да
    Forced                                   : Нет
    Аудио #2
    Идентификатор                            : 3
    Формат                                   : DTS
    Формат/Информация                        : Digital Theater Systems
    Профиль формата                          : MA / Core
    Режим                                    : 16
    Параметр Endianness формата              : Big
    Идентификатор кодека                     : A_DTS
    Продолжительность                        : 1 ч. 28 м.
    Вид битрейта                             : Переменный / Постоянный
    Битрейт                                  : 3648 Кбит/сек / 1509 Кбит/сек
    Каналы                                   : 6 каналов
    Расположение каналов                     : Front: L C R, Side: L R, LFE
    Частота                                  : 48,0 КГц
    Частота кадров                           : 93,750 кадра/сек (512 spf)
    Битовая глубина                          : 24 бит
    Метод сжатия                             : Без потерь / Lossy
    Размер потока                            : 2,26 Гбайт (11%)
    Язык                                     : Swedish
    Default                                  : Нет
    Forced                                   : Нет
    Текст #1
    Идентификатор                            : 4
    Формат                                   : UTF-8
    Идентификатор кодека                     : S_TEXT/UTF8
    Идентификатор кодека/Информация          : UTF-8 Plain Text
    Продолжительность                        : 1 ч. 27 м.
    Битрейт                                  : 56 бит/сек
    Count of elements                        : 840
    Размер потока                            : 36,1 Кбайт (0%)
    Язык                                     : Swedish
    Default                                  : Нет
    Forced                                   : Нет
    Текст #2
    Идентификатор                            : 5
    Формат                                   : UTF-8
    Идентификатор кодека                     : S_TEXT/UTF8
    Идентификатор кодека/Информация          : UTF-8 Plain Text
    Продолжительность                        : 1 ч. 25 м.
    Битрейт                                  : 47 бит/сек
    Count of elements                        : 706
    Размер потока                            : 30,0 Кбайт (0%)
    Язык                                     : English
    Default                                  : Нет
    Forced                                   : Нет
    Текст #3
    Идентификатор                            : 6
    Формат                                   : UTF-8
    Идентификатор кодека                     : S_TEXT/UTF8
    Идентификатор кодека/Информация          : UTF-8 Plain Text
    Продолжительность                        : 1 ч. 27 м.
    Битрейт                                  : 53 бит/сек
    Count of elements                        : 833
    Размер потока                            : 34,3 Кбайт (0%)
    Язык                                     : Finnish
    Default                                  : Нет
    Forced                                   : Нет
    Текст #4
    Идентификатор                            : 7
    Формат                                   : UTF-8
    Идентификатор кодека                     : S_TEXT/UTF8
    Идентификатор кодека/Информация          : UTF-8 Plain Text
    Продолжительность                        : 1 ч. 27 м.
    Битрейт                                  : 55 бит/сек
    Count of elements                        : 833
    Размер потока                            : 35,6 Кбайт (0%)
    Язык                                     : Norwegian
    Default                                  : Нет
    Forced                                   : Нет
    Меню
    00:00:00.000                             : :Chapter 01
    00:10:17.000                             : :Chapter 02
    00:20:10.600                             : :Chapter 03
    00:28:59.440                             : :Chapter 04
    00:39:40.000                             : :Chapter 05
    00:49:58.239                             : :Chapter 06
    01:00:00.280                             : :Chapter 07
    01:10:00.000                             : :Chapter 08
    01:20:00.320                             : :Chapter 09
    01:26:51.040                             : :Chapter 10

    Скриншоты


    Дополнительно
    Цитата:
    Цитата:

    За русскую дорожку и субтитры спасибо HDClub и HPotter
    Скачать .torrent

    Скачать торрент-файл бесплатно и на максимальной скорости!

    Как скачивать? · Что такое торрент? · Рейтинг и ограничения

    !ВНИМАНИЕ!
    Сайт не распространяет и не хранит электронные версии произведений, а занимается лишь лишь предоставлением доступа к создаваемому пользователями каталогу ссылок на торрент-файлы, которые содержат только списки хеш-сумм, убедительная просьба с жалобами обращаться напрямую к пользователю. Файлы для обмена на трекере предоставлены пользователями сайта, и администрация не несёт ответственности за их содержание. Просьба не заливать файлы, защищенные авторскими правами, а также файлы нелегального содержания!


    _________________
    [Профиль] [ЛС]
    Показать сообщения:    
    Ответить на тему

    Текущее время: Сегодня, в 21:59

    Часовой пояс: GMT + 2



    Вы не можете начинать темы
    Вы не можете отвечать на сообщения
    Вы не можете редактировать свои сообщения
    Вы не можете удалять свои сообщения
    Вы не можете голосовать в опросах
    Вы не можете прикреплять файлы к сообщениям
    Вы не можете скачивать файлы